Vítejte na Native Warez Forum!

Jakožto host můžete prohlížet obsah fóra, ale teprve REGISTRACE Vám umožní:

- příspívat vlastními příspěvky a prohlížet četné odkazy ke stažení
- navštěvovat profily ostatních uživatelů
- používat tmavou verzi vzhledu
- vidět grafy funkčnosti odkazů
- sofistikovaně vyhledávat na fóru a využívat filtry
- používat moderní shout box pro psaní s ostatními
- využívat exkluzivní funkci Mé nefunkční linky, usnadňující práci uploaderům
- navštěvovat sekce NWF Exclusive, Uploader's Offerplace a sekce "Hledám ..."

Proto neváhejte a REGISTRUJTE se u nás, NWF tým se na Vás těší.

>> Téma: Závod s časem / Hours (2013)  (Přečteno 67 krát) Sdílet: Sdílet 'Závod s časem / Hours (2013)' na Delicious.com Sdílet 'Závod s časem / Hours (2013)' na Digg.com Sdílet 'Závod s časem / Hours (2013)' na Twitter.com Sdílet 'Závod s časem / Hours (2013)' na Facebook.com

0 uživatelů a 1 Host prohlíží toto téma.

Offline chile
  • *
  • Počet příspěvků 597
  • Počet poděkování 28

    • Zobrazit profil
Závod s časem / Hours (2013)
« kdy: 16. Prosinec 2017, 13:16:45 »
Vyhledat 'Závod s časem' na Google.com (SSL) Vyhledat 'Závod s časem' na YouTube
Vyhledat 'Závod s časem' na ČSFD Vyhledat 'Závod s časem' na IMDb Vyhledat 'Závod s časem' na titulky.com

Závod s časem / Hours / 2013


Hours.2013.720p.BluRay.x264.AC3.CZ
Hours.2013.1080p.BluRay.x264.AC3.CZ


Audio: CZ (2.0), EN
Subtitles: CZ



Kód: [Vybrat]
Info:

https://www.csfd.cz/film/308973
http://www.imdb.com/title/tt2094018/

Hours.2013.720p.BluRay.x264.AC3.CZ
Kód: [Vybrat]
Info
Format                                   : Matroska
Format version                           : Version 4 / Version 2
File size                                : 3.93 GiB
Duration                                 : 1 h 36 min
Overall bit rate                         : 5 805 kb/s
Encoded date                             : UTC 2017-12-16 10:54:09
Writing application                      : mkvmerge v18.0.0 ('Apricity') 64-bit
Writing library                          : libebml v1.3.5 + libmatroska v1.4.8

Video
ID                                       : 4
Format                                   : AVC
Format/Info                              : Advanced Video Codec
Format profile                           : High@L4.1
Format settings, CABAC                   : Yes
Format settings, RefFrames               : 5 frames
Codec ID                                 : V_MPEG4/ISO/AVC
Duration                                 : 1 h 36 min
Bit rate                                 : 4 944 kb/s
Width                                    : 1 280 pixels
Height                                   : 536 pixels
Display aspect ratio                     : 2.40:1
Frame rate mode                          : Constant
Frame rate                               : 23.976 (24000/1001) FPS
Color space                              : YUV
Chroma subsampling                       : 4:2:0
Bit depth                                : 8 bits
Scan type                                : Progressive
Bits/(Pixel*Frame)                       : 0.301
Stream size                              : 3.35 GiB (85%)
Writing library                          : x264 core 133 r2334+704+50 a7549b7 tMod [8-bit@4:2:0 X86_64]
Encoding settings                        : cabac=1 / ref=5 / deblock=1:-3:-3 / analyse=0x3:0x113 / me=umh / subme=7 / psy=1 / fade_compensate=0.00 / psy_rd=1.00:0.00 / mixed_ref=1 / me_range=16 / chroma_me=1 / trellis=1 / 8x8dct=1 / cqm=0 / deadzone=21,11 / fast_pskip=1 / chroma_qp_offset=-2 / threads=16 / lookahead_threads=2 / sliced_threads=0 / nr=0 / decimate=1 / interlaced=0 / bluray_compat=0 / constrained_intra=0 / fgo=0 / bframes=3 / b_pyramid=2 / b_adapt=1 / b_bias=0 / direct=3 / weightb=1 / open_gop=0 / weightp=2 / keyint=240 / keyint_min=23 / scenecut=40 / intra_refresh=0 / rc_lookahead=50 / rc=2pass / mbtree=1 / bitrate=4944 / ratetol=1.0 / qcomp=0.60 / qpmin=0 / qpmax=69 / qpstep=4 / cplxblur=20.0 / qblur=0.5 / ip_ratio=1.40 / aq=4:1.00 / aq-sensitivity=10.00 / aq-factor=1.00:1.00:1.00 / aq2=0 / aq3=0
Language                                 : English
Default                                  : Yes
Forced                                   : Yes

Audio #1
ID                                       : 1
Format                                   : AC-3
Format/Info                              : Audio Coding 3
Format settings, Endianness              : Big
Codec ID                                 : A_AC3
Duration                                 : 1 h 36 min
Bit rate mode                            : Constant
Bit rate                                 : 224 kb/s
Channel(s)                               : 2 channels
Channel positions                        : Front: L R
Sampling rate                            : 48.0 kHz
Frame rate                               : 31.250 FPS (1536 SPF)
Bit depth                                : 16 bits
Compression mode                         : Lossy
Stream size                              : 155 MiB (4%)
Language                                 : Czech
Service kind                             : Complete Main
Default                                  : Yes
Forced                                   : Yes

Audio #2
ID                                       : 2
Format                                   : AC-3
Format/Info                              : Audio Coding 3
Format settings, Endianness              : Big
Codec ID                                 : A_AC3
Duration                                 : 1 h 36 min
Bit rate mode                            : Constant
Bit rate                                 : 640 kb/s
Channel(s)                               : 6 channels
Channel positions                        : Front: L C R, Side: L R, LFE
Sampling rate                            : 48.0 kHz
Frame rate                               : 31.250 FPS (1536 SPF)
Bit depth                                : 16 bits
Compression mode                         : Lossy
Stream size                              : 444 MiB (11%)
Language                                 : English
Service kind                             : Complete Main
Default                                  : No
Forced                                   : No

Text
ID                                       : 3
Format                                   : UTF-8
Codec ID                                 : S_TEXT/UTF8
Codec ID/Info                            : UTF-8 Plain Text
Duration                                 : 1 h 30 min
Bit rate                                 : 36 b/s
Count of elements                        : 845
Stream size                              : 24.3 KiB (0%)
Language                                 : Czech
Default                                  : No
Forced                                   : No

Menu
00:00:00.000                             : en:00:00:00.000
00:07:04.591                             : en:00:07:04.591
00:15:39.230                             : en:00:15:39.230
00:23:37.166                             : en:00:23:37.166
00:32:11.429                             : en:00:32:11.429
00:40:26.424                             : en:00:40:26.424
00:49:04.525                             : en:00:49:04.525
00:56:11.368                             : en:00:56:11.368
01:04:57.268                             : en:01:04:57.268
01:14:31.926                             : en:01:14:31.926
01:23:40.432                             : en:01:23:40.432
01:32:41.139                             : en:01:32:41.139


Kód: [Vybrat]
http://fastshare.cz/8342386/hrs-h7.mkv

nebo

http://fastshare.cz/8342413/hrs-h7.part1.rar
http://fastshare.cz/8342416/hrs-h7.part2.rar
http://fastshare.cz/8342417/hrs-h7.part3.rar



********



Hours.2013.1080p.BluRay.x264.AC3.CZ
Kód: [Vybrat]
Info
Format                                   : Matroska
Format version                           : Version 4 / Version 2
File size                                : 8.53 GiB
Duration                                 : 1 h 36 min
Overall bit rate                         : 12.6 Mb/s
Encoded date                             : UTC 2017-12-16 10:56:52
Writing application                      : mkvmerge v18.0.0 ('Apricity') 64-bit
Writing library                          : libebml v1.3.5 + libmatroska v1.4.8

Video
ID                                       : 4
Format                                   : AVC
Format/Info                              : Advanced Video Codec
Format profile                           : High@L4.1
Format settings, CABAC                   : Yes
Format settings, RefFrames               : 5 frames
Codec ID                                 : V_MPEG4/ISO/AVC
Duration                                 : 1 h 36 min
Bit rate                                 : 10.2 Mb/s
Width                                    : 1 920 pixels
Height                                   : 804 pixels
Display aspect ratio                     : 2.40:1
Frame rate mode                          : Constant
Frame rate                               : 23.976 (24000/1001) FPS
Color space                              : YUV
Chroma subsampling                       : 4:2:0
Bit depth                                : 8 bits
Scan type                                : Progressive
Bits/(Pixel*Frame)                       : 0.276
Stream size                              : 6.92 GiB (81%)
Writing library                          : x264 core 133 r2334+704+50 a7549b7 tMod [8-bit@4:2:0 X86_64]
Encoding settings                        : cabac=1 / ref=5 / deblock=1:-3:-3 / analyse=0x3:0x113 / me=umh / subme=7 / psy=1 / fade_compensate=0.00 / psy_rd=1.00:0.00 / mixed_ref=1 / me_range=16 / chroma_me=1 / trellis=1 / 8x8dct=1 / cqm=0 / deadzone=21,11 / fast_pskip=1 / chroma_qp_offset=-2 / threads=16 / lookahead_threads=2 / sliced_threads=0 / nr=0 / decimate=1 / interlaced=0 / bluray_compat=0 / constrained_intra=0 / fgo=0 / bframes=3 / b_pyramid=2 / b_adapt=1 / b_bias=0 / direct=3 / weightb=1 / open_gop=0 / weightp=2 / keyint=240 / keyint_min=23 / scenecut=40 / intra_refresh=0 / rc_lookahead=50 / rc=2pass / mbtree=1 / bitrate=10224 / ratetol=1.0 / qcomp=0.60 / qpmin=0 / qpmax=69 / qpstep=4 / cplxblur=20.0 / qblur=0.5 / ip_ratio=1.40 / aq=4:1.00 / aq-sensitivity=10.00 / aq-factor=1.00:1.00:1.00 / aq2=0 / aq3=0
Language                                 : English
Default                                  : No
Forced                                   : No

Audio #1
ID                                       : 1
Format                                   : AC-3
Format/Info                              : Audio Coding 3
Format settings, Endianness              : Big
Codec ID                                 : A_AC3
Duration                                 : 1 h 36 min
Bit rate mode                            : Constant
Bit rate                                 : 224 kb/s
Channel(s)                               : 2 channels
Channel positions                        : Front: L R
Sampling rate                            : 48.0 kHz
Frame rate                               : 31.250 FPS (1536 SPF)
Bit depth                                : 16 bits
Compression mode                         : Lossy
Stream size                              : 155 MiB (2%)
Language                                 : Czech
Service kind                             : Complete Main
Default                                  : Yes
Forced                                   : Yes

Audio #2
ID                                       : 2
Format                                   : AC-3
Format/Info                              : Audio Coding 3
Format settings, Endianness              : Big
Codec ID                                 : A_AC3
Duration                                 : 1 h 36 min
Bit rate mode                            : Constant
Bit rate                                 : 640 kb/s
Channel(s)                               : 6 channels
Channel positions                        : Front: L C R, Side: L R, LFE
Sampling rate                            : 48.0 kHz
Frame rate                               : 31.250 FPS (1536 SPF)
Bit depth                                : 16 bits
Compression mode                         : Lossy
Stream size                              : 444 MiB (5%)
Language                                 : English
Service kind                             : Complete Main
Default                                  : No
Forced                                   : No

Audio #3
ID                                       : 5
Format                                   : DTS
Format/Info                              : Digital Theater Systems
Mode                                     : 16
Format settings, Endianness              : Big
Codec ID                                 : A_DTS
Duration                                 : 1 h 36 min
Bit rate mode                            : Constant
Bit rate                                 : 1 509 kb/s
Channel(s)                               : 6 channels
Channel positions                        : Front: L C R, Side: L R, LFE
Sampling rate                            : 48.0 kHz
Frame rate                               : 93.750 FPS (512 SPF)
Bit depth                                : 24 bits
Compression mode                         : Lossy
Stream size                              : 1.02 GiB (12%)
Language                                 : English
Default                                  : No
Forced                                   : No

Text
ID                                       : 3
Format                                   : UTF-8
Codec ID                                 : S_TEXT/UTF8
Codec ID/Info                            : UTF-8 Plain Text
Duration                                 : 1 h 30 min
Bit rate                                 : 36 b/s
Count of elements                        : 845
Stream size                              : 24.3 KiB (0%)
Language                                 : Czech
Default                                  : No
Forced                                   : No

Menu
00:00:00.000                             : en:00:00:00.000
00:07:04.591                             : en:00:07:04.591
00:15:39.230                             : en:00:15:39.230
00:23:37.166                             : en:00:23:37.166
00:32:11.429                             : en:00:32:11.429
00:40:26.424                             : en:00:40:26.424
00:49:04.525                             : en:00:49:04.525
00:56:11.368                             : en:00:56:11.368
01:04:57.268                             : en:01:04:57.268
01:14:31.926                             : en:01:14:31.926
01:23:40.432                             : en:01:23:40.432
01:32:41.139                             : en:01:32:41.139



PASSWORD: NO
REUPLOAD NEDĚLÁM
Záznam pro opravu dat 5%


Offline browing3006
  • *
  • Počet příspěvků 1152
  • Počet poděkování 93

    • Zobrazit profil
Re:Závod s časem / Hours (2013)
« Odpověď #1 kdy: 19. Prosinec 2017, 16:21:53 »
Vyhledat 'Závod s časem' na Google.com (SSL) Vyhledat 'Závod s časem' na YouTube
Vyhledat 'Závod s časem' na ČSFD Vyhledat 'Závod s časem' na IMDb Vyhledat 'Závod s časem' na titulky.com
Závod s časem / Hours (2013)

CSFD:
 
Kód: [Vybrat]
https://www.csfd.cz/film/308973
http://www.imdb.com/title/tt2094018/



Hours.2013.720p.BluRay.x264.CZ
Hours.2013.1080p.BluRay.x264.CZ


Hours.2013.720p.BluRay.x264.CZ
Jazyk: Czech 2,0 224 Kbps , English 5.1 640 Kbps
Subtitles: Czech     

iNFO

Kód: [Vybrat]
ormát                                   : Matroska
Format_Version                           : Version 4 / Version 2
Velikost souboru                         : 3,93 GiB
Duration/String                          : 1h 36mn
Celkový BitRate                          : 5 805 Kbps
Encoded date                             : UTC 2017-12-18 21:37:39
Použitý software                         : mkvmerge v6.2.0 ('Promised Land') built on Apr 28 2013 12:22:01
Enkódoval                                : libebml v1.3.0 + libmatroska v1.4.0
DURATION                                 : 01:30:36.329000000
NUMBER_OF_FRAMES                         : 845
NUMBER_OF_BYTES                          : 24834
_STATISTICS_WRITING_APP                  : mkvmerge v18.0.0 ('Apricity') 64-bit
_STATISTICS_WRITING_DATE_UTC             : 2017-12-16 10:54:09
_STATISTICS_TAGS                         : BPS DURATION NUMBER_OF_FRAMES NUMBER_OF_BYTES

Video
ID                                       : 1
Formát                                   : AVC
Formát/                                  : Advanced Video Codec
Format_Profile                           : High@L4.1
Format_Settings_CABAC/String             : Ano
Format_Settings_RefFrames/String         : 5 frame
CodecID                                  : V_MPEG4/ISO/AVC
Duration/String                          : 1h 36mn
Bit rate                                 : 4 944 Kbps
Šířka                                    : 1 280pixely
Výška                                    : 536pixely
Poměr stran                              : 2,40:1
Frame rate                               : 23,976 fps
ColorSpace                               : YUV
ChromaSubsampling                        : 4:2:0
BitDepth/String                          : 8 bits
ScanType/String                          : Progressive
Bits/(Pixel*Frame)                       : 0.301
StreamSize/String                        : 3,27 GiB (83%)
Enkódoval                                : x264 core 133 r2334+704+50 a7549b7 tMod [8-bit@4:2:0 X86_64]
Nastavení enkoderu                       : cabac=1 / ref=5 / deblock=1:-3:-3 / analyse=0x3:0x113 / me=umh / subme=7 / psy=1 / fade_compensate=0.00 / psy_rd=1.00:0.00 / mixed_ref=1 / me_range=16 / chroma_me=1 / trellis=1 / 8x8dct=1 / cqm=0 / deadzone=21,11 / fast_pskip=1 / chroma_qp_offset=-2 / threads=16 / lookahead_threads=2 / sliced_threads=0 / nr=0 / decimate=1 / interlaced=0 / bluray_compat=0 / constrained_intra=0 / fgo=0 / bframes=3 / b_pyramid=2 / b_adapt=1 / b_bias=0 / direct=3 / weightb=1 / open_gop=0 / weightp=2 / keyint=240 / keyint_min=23 / scenecut=40 / intra_refresh=0 / rc_lookahead=50 / rc=2pass / mbtree=1 / bitrate=4944 / ratetol=1.0 / qcomp=0.60 / qpmin=0 / qpmax=69 / qpstep=4 / cplxblur=20.0 / qblur=0.5 / ip_ratio=1.40 / aq=4:1.00 / aq-sensitivity=10.00 / aq-factor=1.00:1.00:1.00 / aq2=0 / aq3=0
Jazyk                                    : English
Default                                  : Ano
Forced                                   : Ano
DURATION                                 : 01:36:59.814000000
NUMBER_OF_FRAMES                         : 139536
NUMBER_OF_BYTES                          : 3592890337
_STATISTICS_WRITING_APP                  : mkvmerge v18.0.0 ('Apricity') 64-bit
_STATISTICS_WRITING_DATE_UTC             : 2017-12-16 10:54:09
_STATISTICS_TAGS                         : BPS DURATION NUMBER_OF_FRAMES NUMBER_OF_BYTES

Audio #1
ID                                       : 2
Formát                                   : AC-3
Formát/                                  : Audio Coding 3
Format_Settings_ModeExtension            : CM (complete main)
Format_Settings_Endianness               : Big
CodecID                                  : A_AC3
Duration/String                          : 1h 36mn
Bit rate                                 : 640 Kbps
Kanál(y)                                 : 6 kanály
Channel positions                        : Front: L C R, Side: L R, LFE
Sampling rate                            : 48,0 KHz
BitDepth/String                          : 16 bits
StreamSize/String                        : 444 MiB (11%)
Titul                                    : DD 5.1 @ 448 kbps
Jazyk                                    : English
Default                                  : Ne
Forced                                   : Ne

Audio #2
ID                                       : 3
Formát                                   : AC-3
Formát/                                  : Audio Coding 3
Format_Settings_ModeExtension            : CM (complete main)
Format_Settings_Endianness               : Big
CodecID                                  : A_AC3
Duration/String                          : 1h 36mn
Bit rate                                 : 224 Kbps
Kanál(y)                                 : 2 kanály
Channel positions                        : Front: L R
Sampling rate                            : 48,0 KHz
BitDepth/String                          : 16 bits
StreamSize/String                        : 155 MiB (4%)
Titul                                    : DD 2.0 @ 224 kbps
Jazyk                                    : Czech
Default                                  : Ano
Forced                                   : Ano

Text
ID                                       : 4
Formát                                   : UTF-8
CodecID                                  : S_TEXT/UTF8
/                                        : UTF-8 Plain Text
Jazyk                                    : Czech
Default                                  : Ne
Forced                                   : Ne


Kód: [Vybrat]
http://fastshare.cz/8357598/hours1.mkvHours.2013.1080p.BluRay.x264.CZ
Jazyk: Czech 2,0 224 Kbps , English 5.1 640 Kbps
Subtitles: Czech

iNFO

Kód: [Vybrat]
Formát                                   : Matroska
Format_Version                           : Version 4 / Version 2
Velikost souboru                         : 7,51 GiB
Duration/String                          : 1h 36mn
Celkový BitRate                          : 11,1 Mbps
Encoded date                             : UTC 2017-12-18 21:40:08
Použitý software                         : mkvmerge v6.2.0 ('Promised Land') built on Apr 28 2013 12:22:01
Enkódoval                                : libebml v1.3.0 + libmatroska v1.4.0

Video
ID                                       : 1
Formát                                   : AVC
Formát/                                  : Advanced Video Codec
Format_Profile                           : High@L4.1
Format_Settings_CABAC/String             : Ano
Format_Settings_RefFrames/String         : 5 frame
CodecID                                  : V_MPEG4/ISO/AVC
Duration/String                          : 1h 36mn
Bit rate                                 : 10,2 Mbps
Šířka                                    : 1 920pixely
Výška                                    : 804pixely
Poměr stran                              : 2,40:1
Frame rate                               : 23,976 fps
ColorSpace                               : YUV
ChromaSubsampling                        : 4:2:0
BitDepth/String                          : 8 bits
ScanType/String                          : Progressive
Bits/(Pixel*Frame)                       : 0.276
StreamSize/String                        : 6,77 GiB (90%)
Enkódoval                                : x264 core 133 r2334+704+50 a7549b7 tMod [8-bit@4:2:0 X86_64]
Nastavení enkoderu                       : cabac=1 / ref=5 / deblock=1:-3:-3 / analyse=0x3:0x113 / me=umh / subme=7 / psy=1 / fade_compensate=0.00 / psy_rd=1.00:0.00 / mixed_ref=1 / me_range=16 / chroma_me=1 / trellis=1 / 8x8dct=1 / cqm=0 / deadzone=21,11 / fast_pskip=1 / chroma_qp_offset=-2 / threads=16 / lookahead_threads=2 / sliced_threads=0 / nr=0 / decimate=1 / interlaced=0 / bluray_compat=0 / constrained_intra=0 / fgo=0 / bframes=3 / b_pyramid=2 / b_adapt=1 / b_bias=0 / direct=3 / weightb=1 / open_gop=0 / weightp=2 / keyint=240 / keyint_min=23 / scenecut=40 / intra_refresh=0 / rc_lookahead=50 / rc=2pass / mbtree=1 / bitrate=10224 / ratetol=1.0 / qcomp=0.60 / qpmin=0 / qpmax=69 / qpstep=4 / cplxblur=20.0 / qblur=0.5 / ip_ratio=1.40 / aq=4:1.00 / aq-sensitivity=10.00 / aq-factor=1.00:1.00:1.00 / aq2=0 / aq3=0
Jazyk                                    : English
Default                                  : Ne
Forced                                   : Ne
DURATION                                 : 01:36:59.814000000
NUMBER_OF_FRAMES                         : 139536
NUMBER_OF_BYTES                          : 7432795184
_STATISTICS_WRITING_APP                  : mkvmerge v18.0.0 ('Apricity') 64-bit
_STATISTICS_WRITING_DATE_UTC             : 2017-12-16 10:56:52
_STATISTICS_TAGS                         : BPS DURATION NUMBER_OF_FRAMES NUMBER_OF_BYTES

Audio #1
ID                                       : 2
Formát                                   : AC-3
Formát/                                  : Audio Coding 3
Format_Settings_ModeExtension            : CM (complete main)
Format_Settings_Endianness               : Big
CodecID                                  : A_AC3
Duration/String                          : 1h 36mn
Bit rate                                 : 640 Kbps
Kanál(y)                                 : 6 kanály
Channel positions                        : Front: L C R, Side: L R, LFE
Sampling rate                            : 48,0 KHz
BitDepth/String                          : 16 bits
StreamSize/String                        : 444 MiB (6%)
Titul                                    : DD 5.1 @ 448 kbps
Jazyk                                    : English
Default                                  : Ne
Forced                                   : Ne

Audio #2
ID                                       : 3
Formát                                   : AC-3
Formát/                                  : Audio Coding 3
Format_Settings_ModeExtension            : CM (complete main)
Format_Settings_Endianness               : Big
CodecID                                  : A_AC3
Duration/String                          : 1h 36mn
Bit rate                                 : 224 Kbps
Kanál(y)                                 : 2 kanály
Channel positions                        : Front: L R
Sampling rate                            : 48,0 KHz
BitDepth/String                          : 16 bits
StreamSize/String                        : 155 MiB (2%)
Titul                                    : DD 2.0 @ 224 kbps
Jazyk                                    : Czech
Default                                  : Ano
Forced                                   : Ano

Text
ID                                       : 4
Formát                                   : UTF-8
CodecID                                  : S_TEXT/UTF8
/                                        : UTF-8 Plain Text
Jazyk                                    : Czech
Default                                  : Ne
Forced                                   : Ne





 

Hosting poskytuje Station.cz