Vítejte na Native Warez Forum!

Jakožto host můžete prohlížet obsah fóra, ale teprve REGISTRACE Vám umožní:

- příspívat vlastními příspěvky a prohlížet četné odkazy ke stažení
- navštěvovat profily ostatních uživatelů
- používat tmavou verzi vzhledu
- vidět grafy funkčnosti odkazů
- sofistikovaně vyhledávat na fóru a využívat filtry
- používat moderní shout box pro psaní s ostatními
- využívat exkluzivní funkci Mé nefunkční linky, usnadňující práci uploaderům
- navštěvovat sekce NWF Exclusive, Uploader's Offerplace a sekce "Hledám ..."

Proto neváhejte a REGISTRUJTE se u nás, NWF tým se na Vás těší.

>> Téma: Hostel 3 / Hostel: Part 3 (2011)  (Přečteno 3019 krát) Sdílet: Sdílet 'Hostel 3 / Hostel: Part 3 (2011)' na Delicious.com Sdílet 'Hostel 3 / Hostel: Part 3 (2011)' na Digg.com Sdílet 'Hostel 3 / Hostel: Part 3 (2011)' na Twitter.com Sdílet 'Hostel 3 / Hostel: Part 3 (2011)' na Facebook.com

0 uživatelů a 1 Host prohlíží toto téma.

Offline edmundik
  • *
  • Počet příspěvků 2177
  • Počet poděkování 47

    • Zobrazit profil
Hostel 3 / Hostel: Part 3 (2011)
« kdy: 12. Únor 2012, 11:21:41 »
Vyhledat 'Hostel 3 : Part 3' na Google.com (SSL) Vyhledat 'Hostel 3 : Part 3' na YouTube


Horor / Mysteriózní / Thriller

 USA, 2011, 88 min
 Režie: Scott Spiegel
 Hrají: Thomas Kretschmann, Evelina Oboza, Kip Pardue, John Hensley, Carri Jarvis, Gordon Michaels, Barry Levinson, Kelly Thiebaud, Ron Causey

 Vysoké sázky dostávají nový zlověstný rozměr ve třetím pokračování hororové série HOSTEL. Čtyři přátelé na rozlučce se svobodou v Las Vegas neodolají svodům dvou placených společnic a vydávají se na soukromou party daleko od centra. V cíli ale s hrůzou zjišťují, že se ocitli na místě, kde členové elitního klubu hostí nejsadističtější show ve městě, a z nich jsou oběti perverzní hry plné mučení.

Format : AVI
 Format/Info : Audio Video Interleave
 File size : 848 MiB
 Duration : 1h 27mn
 Overall bit rate : 1 351 Kbps
 Writing application : VirtualDubMod 1.5.10.2 (build 2540/release)
 Writing library : VirtualDubMod build 2540/release

 Video
 ID : 0
 Format : MPEG-4 Visual
 Format profile : Advanced Simple@L5
 Format settings, BVOP : Yes
 Format settings, QPel : No
 Format settings, GMC : No warppoints
 Format settings, Matrix : Default (MPEG)
 Codec ID : XVID
 Codec ID/Hint : XviD
 Duration : 1h 27mn
 Bit rate : 1 213 Kbps
 Width : 640 pixels
 Height : 352 pixels
 Display aspect ratio : 16:9
 Frame rate : 23.976 fps
 Color space : YUV
 Chroma subsampling : 4:2:0
 Bit depth : 8 bits
 Scan type : Progressive
 Bits/(Pixel*Frame) : 0.225
 Stream size : 762 MiB (90%)
 Writing library : XviD 1.2.1 (UTC 2008-12-04)

 Audio
 ID : 1
 Format : MPEG Audio
 Format version : Version 1
 Format profile : Layer 3
 Mode : Joint stereo
 Codec ID : 55
 Codec ID/Hint : MP3
 Duration : 1h 27mn
 Bit rate mode : Constant
 Bit rate : 128 Kbps
 Channel(s) : 2 channels
 Sampling rate : 48.0 KHz
 Video delay : 24ms
 Stream size : 80.3 MiB (9%)
 Alignment : Aligned on interleaves
 Interleave, duration : 42 ms (1.00 video frame)
 Interleave, preload duration : 504 ms



DAKUJEM POTEŠÍ..............

 

Hosting poskytuje Station.cz