Vítejte na Native Warez Forum!

Jakožto host můžete prohlížet obsah fóra, ale teprve REGISTRACE Vám umožní:

- příspívat vlastními příspěvky a prohlížet četné odkazy ke stažení
- navštěvovat profily ostatních uživatelů
- používat tmavou verzi vzhledu
- vidět grafy funkčnosti odkazů
- sofistikovaně vyhledávat na fóru a využívat filtry
- používat moderní shout box pro psaní s ostatními
- využívat exkluzivní funkci Mé nefunkční linky, usnadňující práci uploaderům
- navštěvovat sekce NWF Exclusive, Uploader's Offerplace a sekce "Hledám ..."

Proto neváhejte a REGISTRUJTE se u nás, NWF tým se na Vás těší.

>> Téma: VA – 1993 – Chill Out Or Die 1-5(FLAC)  (Přečteno 812 krát) Sdílet: Sdílet 'VA – 1993 – Chill Out Or Die 1-5(FLAC)' na Delicious.com Sdílet 'VA – 1993 – Chill Out Or Die 1-5(FLAC)' na Digg.com Sdílet 'VA – 1993 – Chill Out Or Die 1-5(FLAC)' na Twitter.com Sdílet 'VA – 1993 – Chill Out Or Die 1-5(FLAC)' na Facebook.com

0 uživatelů a 1 Host prohlíží toto téma.

Offline krejca23
  • *
  • Počet příspěvků 51
  • Počet poděkování 15

    • Zobrazit profil
VA – 1993 – Chill Out Or Die 1-5(FLAC)
« kdy: 13. Červen 2016, 09:39:02 »
Vyhledat 'VA – 1993 – Chill Out Or Die 1-5' na Google.com (SSL) Vyhledat 'VA – 1993 – Chill Out Or Die 1-5' na YouTube
Vyhledat 'VA ' na Last.fm
Chill Out Or Die 1-5


Label: Rising High Records
Žánr: Ambient, Techno, Downtempo
Rok1:1993-1995
Výroba: UK
Kodek: FLAC
Typ: image+.cue
Bitrate: lossless
Zdroj: CD




Info:
Exact Audio Copy V0.99 prebeta 4 from 23. January 2008

EAC extraction logfile from 16. January 2009, 22:59

Various / Chill Out Or Die!

Used drive  : PIONEER DVD-RW  DVR-111   Adapter: 3  ID: 0

Read mode               : Secure
Utilize accurate stream : Yes
Defeat audio cache      : Yes
Make use of C2 pointers : No

Read offset correction                      : 48
Overread into Lead-In and Lead-Out          : No
Fill up missing offset samples with silence : Yes
Delete leading and trailing silent blocks   : No
Null samples used in CRC calculations       : Yes
Used interface                              : Installed external ASPI interface

Used output format              : User Defined Encoder
Selected bitrate                : 1024 kBit/s
Quality                         : High
Add ID3 tag                     : Yes
Command line compressor         : C:\Program Files\Exact Audio Copy\Flac\flac.exe
Additional command line options : -8 -V -T "ARTIST=%a" -T "ALBUM=%g" -T "DATE=%y" -T "GENRE=%m"  %s -o %d


TOC of the extracted CD

     Track |   Start  |  Length  | Start sector | End sector
    ---------------------------------------------------------
        1  |  0:00.32 |  8:59.55 |        32    |    40511   
        2  |  9:00.12 |  4:37.53 |     40512    |    61339   
        3  | 13:37.65 |  3:58.42 |     61340    |    79231   
        4  | 17:36.32 |  6:21.18 |     79232    |   107824   
        5  | 23:57.50 |  8:21.42 |    107825    |   145441   
        6  | 32:19.17 |  4:53.50 |    145442    |   167466   
        7  | 37:12.67 |  8:08.25 |    167467    |   204091   
        8  | 45:21.17 | 11:36.68 |    204092    |   256359   
        9  | 56:58.10 | 10:17.15 |    256360    |   302649   
       10  | 67:15.25 |  6:45.72 |    302650    |   333096   


Range status and errors

Selected range

     Filename D:\temp\nnm\Various - Chill Out Or Die!.wav

     Peak level 100.0 %
     Range quality 100.0 %
     Test CRC 0D8A3530
     Copy CRC 0D8A3530
     Copy OK

No errors occurred

 
AccurateRip summary
 
Track  1  not present in database
Track  2  not present in database
Track  3  not present in database
Track  4  not present in database
Track  5  not present in database
Track  6  not present in database
Track  7  not present in database
Track  8  not present in database
Track  9  not present in database
Track 10  not present in database
Exact Audio Copy V0.99 prebeta 4 from 23. January 2008

EAC extraction logfile from 18. January 2009, 0:10

Various / Chill Out Or Die II CD1

Used drive  : PIONEER DVD-RW  DVR-111   Adapter: 3  ID: 0

Read mode               : Secure
Utilize accurate stream : Yes
Defeat audio cache      : Yes
Make use of C2 pointers : No

Read offset correction                      : 48
Overread into Lead-In and Lead-Out          : No
Fill up missing offset samples with silence : Yes
Delete leading and trailing silent blocks   : No
Null samples used in CRC calculations       : Yes
Used interface                              : Installed external ASPI interface

Used output format              : User Defined Encoder
Selected bitrate                : 1024 kBit/s
Quality                         : High
Add ID3 tag                     : Yes
Command line compressor         : C:\Program Files\Exact Audio Copy\Flac\flac.exe
Additional command line options : -8 -V -T "ARTIST=%a" -T "ALBUM=%g" -T "DATE=%y" -T "GENRE=%m"  %s -o %d


TOC of the extracted CD

     Track |   Start  |  Length  | Start sector | End sector
    ---------------------------------------------------------
        1  |  0:00.33 | 10:20.10 |        33    |    46542   
        2  | 10:20.43 |  7:27.17 |     46543    |    80084   
        3  | 17:47.60 | 12:16.25 |     80085    |   135309   
        4  | 30:04.10 |  6:04.18 |    135310    |   162627   
        5  | 36:08.28 |  7:18.12 |    162628    |   195489   
        6  | 43:26.40 |  7:56.03 |    195490    |   231192   
        7  | 51:22.43 |  4:53.57 |    231193    |   253224   
        8  | 56:16.25 |  8:32.73 |    253225    |   291697   


Range status and errors

Selected range

     Filename D:\temp\nnm\Various - Chill Out Or Die II CD1.wav

     Peak level 100.0 %
     Range quality 99.9 %
     Test CRC 8DD26DC0
     Copy CRC 8DD26DC0
     Copy OK

No errors occurred

 
AccurateRip summary
 
Track  1  not present in database
Track  2  not present in database
Track  3  not present in database
Track  4  not present in database
Track  5  not present in database
Track  6  not present in database
Track  7  not present in database
Track  8  not present in database
 
Exact Audio Copy V0.99 prebeta 4 from 23. January 2008

EAC extraction logfile from 16. January 2009, 23:48

Various / Chill Out Or Die II CD2

Used drive  : PIONEER DVD-RW  DVR-111   Adapter: 3  ID: 0

Read mode               : Secure
Utilize accurate stream : Yes
Defeat audio cache      : Yes
Make use of C2 pointers : No

Read offset correction                      : 48
Overread into Lead-In and Lead-Out          : No
Fill up missing offset samples with silence : Yes
Delete leading and trailing silent blocks   : No
Null samples used in CRC calculations       : Yes
Used interface                              : Installed external ASPI interface

Used output format              : User Defined Encoder
Selected bitrate                : 1024 kBit/s
Quality                         : High
Add ID3 tag                     : Yes
Command line compressor         : C:\Program Files\Exact Audio Copy\Flac\flac.exe
Additional command line options : -8 -V -T "ARTIST=%a" -T "ALBUM=%g" -T "DATE=%y" -T "GENRE=%m"  %s -o %d


TOC of the extracted CD

     Track |   Start  |  Length  | Start sector | End sector
    ---------------------------------------------------------
        1  |  0:00.33 | 10:18.22 |        33    |    46404   
        2  | 10:18.55 |  8:57.30 |     46405    |    86709   
        3  | 19:16.10 | 17:56.58 |     86710    |   167467   
        4  | 37:12.68 |  8:20.17 |    167468    |   204984   
        5  | 45:33.10 |  6:04.35 |    204985    |   232319   
        6  | 51:37.45 |  6:01.53 |    232320    |   259447   
        7  | 57:39.23 | 13:03.07 |    259448    |   318179   


Range status and errors

Selected range

     Filename D:\temp\nnm\Various - Chill Out Or Die II CD2.wav

     Peak level 100.0 %
     Range quality 100.0 %
     Test CRC BDEE37E4
     Copy CRC BDEE37E4
     Copy OK

No errors occurred

 
AccurateRip summary
 
Track  1  not present in database
Track  2  not present in database
Track  3  not present in database
Track  4  not present in database
Track  5  not present in database
Track  6  not present in database
Track  7  not present in database
 
None of the tracks are present in the AccurateRip database

End of status report
Exact Audio Copy V0.99 prebeta 4 from 23. January 2008

EAC extraction logfile from 17. January 2009, 17:47

Various / Chill Out Or Die III

Used drive  : PIONEER DVD-RW  DVR-111   Adapter: 3  ID: 0

Read mode               : Secure
Utilize accurate stream : Yes
Defeat audio cache      : Yes
Make use of C2 pointers : No

Read offset correction                      : 48
Overread into Lead-In and Lead-Out          : No
Fill up missing offset samples with silence : Yes
Delete leading and trailing silent blocks   : No
Null samples used in CRC calculations       : Yes
Used interface                              : Installed external ASPI interface

Used output format              : User Defined Encoder
Selected bitrate                : 1024 kBit/s
Quality                         : High
Add ID3 tag                     : Yes
Command line compressor         : C:\Program Files\Exact Audio Copy\Flac\flac.exe
Additional command line options : -8 -V -T "ARTIST=%a" -T "ALBUM=%g" -T "DATE=%y" -T "GENRE=%m"  %s -o %d


TOC of the extracted CD

     Track |   Start  |  Length  | Start sector | End sector
    ---------------------------------------------------------
        1  |  0:00.32 | 13:56.25 |        32    |    62756   
        2  | 13:56.57 |  4:32.45 |     62757    |    83201   
        3  | 18:29.27 | 11:10.23 |     83202    |   133474   
        4  | 29:39.50 |  7:32.25 |    133475    |   167399   
        5  | 37:12.00 |  5:15.40 |    167400    |   191064   
        6  | 42:27.40 |  6:46.65 |    191065    |   221579   
        7  | 49:14.30 |  7:12.42 |    221580    |   254021   
        8  | 56:26.72 | 10:28.65 |    254022    |   301186   
        9  | 66:55.62 | 12:02.13 |    301187    |   355349   


Range status and errors

Selected range

     Filename D:\temp\nnm\Various - Chill Out Or Die III.wav

     Peak level 98.8 %
     Range quality 100.0 %
     Test CRC 90413F55
     Copy CRC 90413F55
     Copy OK

No errors occurred

 
AccurateRip summary
 
Track  1  not present in database
Track  2  not present in database
Track  3  not present in database
Track  4  not present in database
Track  5  not present in database
Track  6  not present in database
Track  7  not present in database
Track  8  not present in database
Track  9  not present in database
 
None of the tracks are present in the AccurateRip database

End of status report
Exact Audio Copy V0.99 prebeta 4 from 23. January 2008

EAC extraction logfile from 17. January 2009, 19:43

Various / Chill Out Or Die IV CD1

Used drive  : PIONEER DVD-RW  DVR-111   Adapter: 3  ID: 0

Read mode               : Secure
Utilize accurate stream : Yes
Defeat audio cache      : Yes
Make use of C2 pointers : No

Read offset correction                      : 48
Overread into Lead-In and Lead-Out          : No
Fill up missing offset samples with silence : Yes
Delete leading and trailing silent blocks   : No
Null samples used in CRC calculations       : Yes
Used interface                              : Installed external ASPI interface

Used output format              : User Defined Encoder
Selected bitrate                : 1024 kBit/s
Quality                         : High
Add ID3 tag                     : Yes
Command line compressor         : C:\Program Files\Exact Audio Copy\Flac\flac.exe
Additional command line options : -8 -V -T "ARTIST=%a" -T "ALBUM=%g" -T "DATE=%y" -T "GENRE=%m"  %s -o %d


TOC of the extracted CD

     Track |   Start  |  Length  | Start sector | End sector
    ---------------------------------------------------------
        1  |  0:00.32 |  5:47.65 |        32    |    26121   
        2  |  5:48.22 |  8:31.13 |     26122    |    64459   
        3  | 14:19.35 |  7:40.00 |     64460    |    98959   
        4  | 21:59.35 | 13:26.57 |     98960    |   159466   
        5  | 35:26.17 |  7:48.23 |    159467    |   194589   
        6  | 43:14.40 |  2:33.72 |    194590    |   206136   
        7  | 45:48.37 | 11:20.15 |    206137    |   257151   
        8  | 57:08.52 |  9:17.25 |    257152    |   298951   
        9  | 66:26.02 |  8:18.30 |    298952    |   336331   


Range status and errors

Selected range

Exact Audio Copy V0.99 prebeta 4 from 23. January 2008

EAC extraction logfile from 17. January 2009, 19:43

Various / Chill Out Or Die IV CD1

Used drive  : PIONEER DVD-RW  DVR-111   Adapter: 3  ID: 0

Read mode               : Secure
Utilize accurate stream : Yes
Defeat audio cache      : Yes
Make use of C2 pointers : No

Read offset correction                      : 48
Overread into Lead-In and Lead-Out          : No
Fill up missing offset samples with silence : Yes
Delete leading and trailing silent blocks   : No
Null samples used in CRC calculations       : Yes
Used interface                              : Installed external ASPI interface

Used output format              : User Defined Encoder
Selected bitrate                : 1024 kBit/s
Quality                         : High
Add ID3 tag                     : Yes
Command line compressor         : C:\Program Files\Exact Audio Copy\Flac\flac.exe
Additional command line options : -8 -V -T "ARTIST=%a" -T "ALBUM=%g" -T "DATE=%y" -T "GENRE=%m"  %s -o %d


TOC of the extracted CD

     Track |   Start  |  Length  | Start sector | End sector
    ---------------------------------------------------------
        1  |  0:00.32 |  5:47.65 |        32    |    26121   
        2  |  5:48.22 |  8:31.13 |     26122    |    64459   
        3  | 14:19.35 |  7:40.00 |     64460    |    98959   
        4  | 21:59.35 | 13:26.57 |     98960    |   159466   
        5  | 35:26.17 |  7:48.23 |    159467    |   194589   
        6  | 43:14.40 |  2:33.72 |    194590    |   206136   
        7  | 45:48.37 | 11:20.15 |    206137    |   257151   
        8  | 57:08.52 |  9:17.25 |    257152    |   298951   
        9  | 66:26.02 |  8:18.30 |    298952    |   336331   


Range status and errors

Selected range

     Filename D:\temp\nnm\Various - Chill Out Or Die IV CD1.wav

     Peak level 98.1 %
     Range quality 100.0 %
     Test CRC 96501E72
     Copy CRC 96501E72
     Copy OK

No errors occurred

 
AccurateRip summary
 
Track  1  not present in database
Track  2  not present in database
Track  3  not present in database
Track  4  not present in database
Track  5  not present in database
Track  6  not present in database
Track  7  not present in database
Track  8  not present in database
Track  9  not present in database
 
None of the tracks are present in the AccurateRip database

End of status report
Exact Audio Copy V0.99 prebeta 4 from 23. January 2008

EAC extraction logfile from 17. January 2009, 20:54

Various / Chill Out Or Die IV CD2

Used drive  : PIONEER DVD-RW  DVR-111   Adapter: 3  ID: 0

Read mode               : Secure
Utilize accurate stream : Yes
Defeat audio cache      : Yes
Make use of C2 pointers : No

Read offset correction                      : 48
Overread into Lead-In and Lead-Out          : No
Fill up missing offset samples with silence : Yes
Delete leading and trailing silent blocks   : No
Null samples used in CRC calculations       : Yes
Used interface                              : Installed external ASPI interface

Used output format              : User Defined Encoder
Selected bitrate                : 1024 kBit/s
Quality                         : High
Add ID3 tag                     : Yes
Command line compressor         : C:\Program Files\Exact Audio Copy\Flac\flac.exe
Additional command line options : -8 -V -T "ARTIST=%a" -T "ALBUM=%g" -T "DATE=%y" -T "GENRE=%m"  %s -o %d


TOC of the extracted CD

     Track |   Start  |  Length  | Start sector | End sector
    ---------------------------------------------------------
        1  |  0:00.32 | 13:51.28 |        32    |    62384   
        2  | 13:51.60 | 10:37.20 |     62385    |   110179   
        3  | 24:29.05 |  6:16.45 |    110180    |   138424   
        4  | 30:45.50 |  3:42.50 |    138425    |   155124   
        5  | 34:28.25 |  4:11.65 |    155125    |   174014   
        6  | 38:40.15 | 11:07.45 |    174015    |   224084   
        7  | 49:47.60 | 27:52.62 |    224085    |   349546   


Range status and errors

Selected range

     Filename D:\temp\nnm\Various - Chill Out Or Die IV CD2.wav

     Peak level 98.1 %
     Range quality 100.0 %
     Test CRC 2EFCDD3B
     Copy CRC 2EFCDD3B
     Copy OK

No errors occurred

 
AccurateRip summary
 
Track  1  not present in database
Track  2  not present in database
Track  3  not present in database
Track  4  not present in database
Track  5  not present in database
Track  6  not present in database
Track  7  not present in database
 
None of the tracks are present in the AccurateRip database

End of status report
Exact Audio Copy V0.99 prebeta 4 from 23. January 2008

EAC extraction logfile from 17. January 2009, 23:16

Various / Chill Out Or Die America

Used drive  : PIONEER DVD-RW  DVR-111   Adapter: 3  ID: 0

Read mode               : Secure
Utilize accurate stream : Yes
Defeat audio cache      : Yes
Make use of C2 pointers : No

Read offset correction                      : 48
Overread into Lead-In and Lead-Out          : No
Fill up missing offset samples with silence : Yes
Delete leading and trailing silent blocks   : No
Null samples used in CRC calculations       : Yes
Used interface                              : Installed external ASPI interface

Used output format              : User Defined Encoder
Selected bitrate                : 1024 kBit/s
Quality                         : High
Add ID3 tag                     : Yes
Command line compressor         : C:\Program Files\Exact Audio Copy\Flac\flac.exe
Additional command line options : -8 -V -T "ARTIST=%a" -T "ALBUM=%g" -T "DATE=%y" -T "GENRE=%m"  %s -o %d


TOC of the extracted CD

     Track |   Start  |  Length  | Start sector | End sector
    ---------------------------------------------------------
        1  |  0:00.00 |  8:07.03 |         0    |    36527   
        2  |  8:07.03 |  8:35.36 |     36528    |    75188   
        3  | 16:42.39 | 10:57.20 |     75189    |   124483   
        4  | 27:39.59 |  6:25.24 |    124484    |   153382   
        5  | 34:05.08 |  8:03.01 |    153383    |   189608   
        6  | 42:08.09 |  7:40.15 |    189609    |   224123   
        7  | 49:48.24 |  8:47.62 |    224124    |   263710   
        8  | 58:36.11 |  8:24.32 |    263711    |   301542   
        9  | 67:00.43 |  6:04.10 |    301543    |   328852   


Range status and errors

Selected range

     Filename D:\temp\nnm\Various - Chill Out Or Die America.wav

     Peak level 100.0 %
     Range quality 100.0 %
     Test CRC 63B13E41
     Copy CRC 63B13E41
     Copy OK

No errors occurred

 
AccurateRip summary
 
Track  1  not present in database
Track  2  not present in database
Track  3  not present in database
Track  4  not present in database
Track  5  not present in database
Track  6  not present in database
Track  7  not present in database
Track  8  not present in database
Track  9  not present in database
 
None of the tracks are present in the AccurateRip database

End of status report












 

Hosting poskytuje Station.cz