Vítejte na Native Warez Forum!

Jakožto host můžete prohlížet obsah fóra, ale teprve REGISTRACE Vám umožní:

- příspívat vlastními příspěvky a prohlížet četné odkazy ke stažení
- navštěvovat profily ostatních uživatelů
- používat tmavou verzi vzhledu
- vidět grafy funkčnosti odkazů
- sofistikovaně vyhledávat na fóru a využívat filtry
- používat moderní shout box pro psaní s ostatními
- využívat exkluzivní funkci Mé nefunkční linky, usnadňující práci uploaderům
- navštěvovat sekce NWF Exclusive, Uploader's Offerplace a sekce "Hledám ..."

Proto neváhejte a REGISTRUJTE se u nás, NWF tým se na Vás těší.

>> Téma: Karcoolka / Hoodwinked! (2005)  (Přečteno 43 krát) Sdílet: Sdílet 'Karcoolka / Hoodwinked! (2005)' na Delicious.com Sdílet 'Karcoolka / Hoodwinked! (2005)' na Digg.com Sdílet 'Karcoolka / Hoodwinked! (2005)' na Twitter.com Sdílet 'Karcoolka / Hoodwinked! (2005)' na Facebook.com

0 uživatelů a 1 Host prohlíží toto téma.

Offline JakoTakiNaKaši
  • *
  • Počet příspěvků 5230
  • Počet poděkování 48

    • Zobrazit profil
Karcoolka / Hoodwinked! (2005)
« kdy: 08. Leden 2017, 13:31:58 »
Vyhledat 'Karcoolka !' na Google.com (SSL) Vyhledat 'Karcoolka !' na YouTube
Vyhledat 'Karcoolka !' na ČSFD Vyhledat 'Karcoolka !' na IMDb Vyhledat 'Karcoolka !' na titulky.com
Karcoolka / Hoodwinked! (2005)

Hoodwinked.2005.720p.BluRay.x264.AC3.CZ.MiKi
Hoodwinked.2005.1080p.BluRay.x264.AC3.CZ.MiKi


CSFD
Kód: [Vybrat]
http://www.csfd.cz/film/202136-karcoolka/prehled/
Hoodwinked.2005.720p.BluRay.x264.AC3.CZ.MiKi
Jazyk : CZ 2.0 AC3 / EN 5.1 DTS
Titulky : CZ / EN

MediaInfo
Kód: [Vybrat]
Format                                   : Matroska
Format version                           : Version 4 / Version 2
File size                                : 4.05 GiB
Duration                                 : 1h 21mn
Overall bit rate                         : 7 155 Kbps
Encoded date                             : UTC 2017-01-02 08:14:08
Writing application                      : mkvmerge v8.0.0 ('Til The Day That I Die') 64bit
Writing library                          : libebml v1.3.1 + libmatroska v1.4.2
DURATION                                 : 01:13:46.500000000
NUMBER_OF_FRAMES                         : 1157
NUMBER_OF_BYTES                          : 45351
_STATISTICS_WRITING_APP                  : mkvmerge v8.0.0 ('Til The Day That I Die') 64bit
_STATISTICS_WRITING_DATE_UTC             : 2017-01-02 08:14:08
_STATISTICS_TAGS                         : BPS DURATION NUMBER_OF_FRAMES NUMBER_OF_BYTES

Video
ID                                       : 1
Format                                   : AVC
Format/Info                              : Advanced Video Codec
Format profile                           : High@L5.1
Format settings, CABAC                   : Yes
Format settings, ReFrames                : 8 frames
Codec ID                                 : V_MPEG4/ISO/AVC
Duration                                 : 1h 21mn
Bit rate                                 : 6 207 Kbps
Width                                    : 1 280 pixels
Height                                   : 720 pixels
Display aspect ratio                     : 16:9
Frame rate mode                          : Constant
Frame rate                               : 23.976 fps
Color space                              : YUV
Chroma subsampling                       : 4:2:0
Bit depth                                : 8 bits
Scan type                                : Progressive
Bits/(Pixel*Frame)                       : 0.281
Stream size                              : 3.44 GiB (85%)
Title                                    : Hoodwinked.2005.720p.BluRay.x264.AC3.CZ.MiKi
Writing library                          : x264 core 65 r1046M 71d34b4
Encoding settings                        : cabac=1 / ref=8 / deblock=1:-2:-1 / analyse=0x3:0x113 / me=umh / subme=6 / psy_rd=1.0:0.0 / mixed_ref=1 / me_range=16 / chroma_me=1 / trellis=1 / 8x8dct=1 / cqm=0 / deadzone=21,11 / chroma_qp_offset=-2 / threads=6 / nr=0 / decimate=1 / mbaff=0 / bframes=16 / b_pyramid=1 / b_adapt=1 / b_bias=0 / direct=3 / wpredb=1 / keyint=250 / keyint_min=25 / scenecut=40(pre) / rc=2pass / bitrate=6207 / ratetol=1.0 / qcomp=0.60 / qpmin=10 / qpmax=51 / qpstep=4 / cplxblur=20.0 / qblur=0.5 / ip_ratio=1.40 / pb_ratio=1.30 / aq=1:1.00
Language                                 : English
Default                                  : Yes
Forced                                   : No
DURATION                                 : 01:21:05.994000000
NUMBER_OF_FRAMES                         : 116667
NUMBER_OF_BYTES                          : 3775201507
_STATISTICS_WRITING_APP                  : mkvmerge v8.0.0 ('Til The Day That I Die') 64bit
_STATISTICS_WRITING_DATE_UTC             : 2017-01-02 08:14:08
_STATISTICS_TAGS                         : BPS DURATION NUMBER_OF_FRAMES NUMBER_OF_BYTES

Audio #1
ID                                       : 2
Format                                   : AC-3
Format/Info                              : Audio Coding 3
Format profile                           : Dolby Digital
Mode extension                           : CM (complete main)
Format settings, Endianness              : Big
Codec ID                                 : A_AC3
Duration                                 : 1h 21mn
Bit rate mode                            : Constant
Bit rate                                 : 192 Kbps
Channel(s)                               : 2 channels
Channel positions                        : Front: L R
Sampling rate                            : 48.0 KHz
Bit depth                                : 16 bits
Compression mode                         : Lossy
Delay relative to video                  : 12s 800ms
Stream size                              : 111 MiB (3%)
Title                                    : CZ AC3 2.0 @ 192 Kbps
Language                                 : Czech
Default                                  : Yes
Forced                                   : No

Audio #2
ID                                       : 3
Format                                   : DTS
Format/Info                              : Digital Theater Systems
Mode                                     : 16
Format settings, Endianness              : Big
Codec ID                                 : A_DTS
Duration                                 : 1h 21mn
Bit rate mode                            : Constant
Bit rate                                 : 755 Kbps
Channel(s)                               : 6 channels
Channel positions                        : Front: L C R, Side: L R, LFE
Sampling rate                            : 48.0 KHz
Bit depth                                : 24 bits
Compression mode                         : Lossy
Stream size                              : 438 MiB (11%)
Title                                    : EN DTS 5.1 @ 755 Kbps
Language                                 : English
Default                                  : No
Forced                                   : No

Text #1
ID                                       : 4
Format                                   : UTF-8
Codec ID                                 : S_TEXT/UTF8
Codec ID/Info                            : UTF-8 Plain Text
Title                                    : CZ
Language                                 : Czech
Default                                  : No
Forced                                   : No

Text #2
ID                                       : 5
Format                                   : UTF-8
Codec ID                                 : S_TEXT/UTF8
Codec ID/Info                            : UTF-8 Plain Text
Title                                    : EN
Language                                 : English
Default                                  : No
Forced                                   : No
Fastshare
Kód: [Vybrat]
http://fastshare.cz/6891830/karcoo10520.part1.rar
http://fastshare.cz/6891947/karcoo10520.part2.rar
http://fastshare.cz/6891963/karcoo10520.part3.rar
No Pass

=============================================

Hoodwinked.2005.1080p.BluRay.x264.AC3.CZ.MiKi
Jazyk : CZ 2.0 AC3 / EN 5.1 DTS
Titulky : CZ / EN

MediaInfo
Kód: [Vybrat]
Format                                   : Matroska
Format version                           : Version 4 / Version 2
File size                                : 8.92 GiB
Duration                                 : 1h 21mn
Overall bit rate mode                    : Variable
Overall bit rate                         : 15.7 Mbps
Encoded date                             : UTC 2017-01-02 08:33:30
Writing application                      : mkvmerge v8.0.0 ('Til The Day That I Die') 64bit
Writing library                          : libebml v1.3.1 + libmatroska v1.4.2
DURATION                                 : 01:13:46.500000000
NUMBER_OF_FRAMES                         : 1157
NUMBER_OF_BYTES                          : 45351
_STATISTICS_WRITING_APP                  : mkvmerge v8.0.0 ('Til The Day That I Die') 64bit
_STATISTICS_WRITING_DATE_UTC             : 2017-01-02 08:33:30
_STATISTICS_TAGS                         : BPS DURATION NUMBER_OF_FRAMES NUMBER_OF_BYTES

Video
ID                                       : 1
Format                                   : AVC
Format/Info                              : Advanced Video Codec
Format profile                           : High@L4.1
Format settings, CABAC                   : Yes
Format settings, ReFrames                : 4 frames
Codec ID                                 : V_MPEG4/ISO/AVC
Duration                                 : 1h 21mn
Bit rate mode                            : Variable
Bit rate                                 : 13.7 Mbps
Maximum bit rate                         : 35.0 Mbps
Width                                    : 1 920 pixels
Height                                   : 1 080 pixels
Display aspect ratio                     : 16:9
Frame rate mode                          : Constant
Frame rate                               : 23.976 fps
Color space                              : YUV
Chroma subsampling                       : 4:2:0
Bit depth                                : 8 bits
Scan type                                : Progressive
Bits/(Pixel*Frame)                       : 0.276
Stream size                              : 7.78 GiB (87%)
Title                                    : Hoodwinked.2005.1080p.BluRay.x264.AC3.CZ.MiKi
Language                                 : English
Default                                  : Yes
Forced                                   : No
Color primaries                          : BT.709
Transfer characteristics                 : BT.709
Matrix coefficients                      : BT.709
DURATION                                 : 01:21:05.986000000
NUMBER_OF_FRAMES                         : 116667
NUMBER_OF_BYTES                          : 8540613433
_STATISTICS_WRITING_APP                  : mkvmerge v8.0.0 ('Til The Day That I Die') 64bit
_STATISTICS_WRITING_DATE_UTC             : 2017-01-02 08:33:30
_STATISTICS_TAGS                         : BPS DURATION NUMBER_OF_FRAMES NUMBER_OF_BYTES

Audio #1
ID                                       : 2
Format                                   : AC-3
Format/Info                              : Audio Coding 3
Format profile                           : Dolby Digital
Mode extension                           : CM (complete main)
Format settings, Endianness              : Big
Codec ID                                 : A_AC3
Duration                                 : 1h 21mn
Bit rate mode                            : Constant
Bit rate                                 : 192 Kbps
Channel(s)                               : 2 channels
Channel positions                        : Front: L R
Sampling rate                            : 48.0 KHz
Bit depth                                : 16 bits
Compression mode                         : Lossy
Delay relative to video                  : 12s 800ms
Stream size                              : 111 MiB (1%)
Title                                    : CZ AC3 2.0 @ 192 Kbps
Language                                 : Czech
Default                                  : Yes
Forced                                   : No

Audio #2
ID                                       : 3
Format                                   : DTS
Format/Info                              : Digital Theater Systems
Mode                                     : 16
Format settings, Endianness              : Big
Codec ID                                 : A_DTS
Duration                                 : 1h 21mn
Bit rate mode                            : Constant
Bit rate                                 : 1 509 Kbps
Channel(s)                               : 6 channels
Channel positions                        : Front: L C R, Side: L R, LFE
Sampling rate                            : 48.0 KHz
Bit depth                                : 24 bits
Compression mode                         : Lossy
Stream size                              : 875 MiB (10%)
Title                                    : EN DTS 5.1 @ 1509 Kbps
Language                                 : English
Default                                  : No
Forced                                   : No

Text #1
ID                                       : 4
Format                                   : UTF-8
Codec ID                                 : S_TEXT/UTF8
Codec ID/Info                            : UTF-8 Plain Text
Title                                    : CZ
Language                                 : Czech
Default                                  : No
Forced                                   : No

Text #2
ID                                       : 5
Format                                   : UTF-8
Codec ID                                 : S_TEXT/UTF8
Codec ID/Info                            : UTF-8 Plain Text
Title                                    : EN
Language                                 : English
Default                                  : No
Forced                                   : No
Fastshare
No Pass


 

Hosting poskytuje Station.cz