Vítejte na Native Warez Forum!

Jakožto host můžete prohlížet obsah fóra, ale teprve REGISTRACE Vám umožní:

- příspívat vlastními příspěvky a prohlížet četné odkazy ke stažení
- navštěvovat profily ostatních uživatelů
- používat tmavou verzi vzhledu
- vidět grafy funkčnosti odkazů
- sofistikovaně vyhledávat na fóru a využívat filtry
- používat moderní shout box pro psaní s ostatními
- využívat exkluzivní funkci Mé nefunkční linky, usnadňující práci uploaderům
- navštěvovat sekce NWF Exclusive, Uploader's Offerplace a sekce "Hledám ..."

Proto neváhejte a REGISTRUJTE se u nás, NWF tým se na Vás těší.

>> Téma: Karcoolka 2 / Hoodwinked Too! Hood vs. Evil (2011)  (Přečteno 117 krát) Sdílet: Sdílet 'Karcoolka 2 / Hoodwinked Too! Hood vs. Evil (2011)' na Delicious.com Sdílet 'Karcoolka 2 / Hoodwinked Too! Hood vs. Evil (2011)' na Digg.com Sdílet 'Karcoolka 2 / Hoodwinked Too! Hood vs. Evil (2011)' na Twitter.com Sdílet 'Karcoolka 2 / Hoodwinked Too! Hood vs. Evil (2011)' na Facebook.com

0 uživatelů a 1 Host prohlíží toto téma.

Offline JakoTakiNaKaši
  • *
  • Počet příspěvků 5292
  • Počet poděkování 48

    • Zobrazit profil
Karcoolka 2 / Hoodwinked Too! Hood vs. Evil (2011)

Hoodwinked.Too!.Hood.vs.Evil.2011.720p.BluRay.x264.DTS-WiKi
Hoodwinked.Too!.Hood.vs.Evil.2011.1080p.BluRay.x264.CZ.EN.MiKi


CSFD
Kód: [Vybrat]
http://www.csfd.cz/film/239491-hoodwinked-too-hood-vs-evil/prehled/
Hoodwinked.Too!.Hood.vs.Evil.2011.720p.BluRay.x264.DTS-WiKi
Jazyk : CZ 2.0 AC3 / EN 5.1 DTS
Titulky : CZ / EN

MediaInfo
Kód: [Vybrat]
Format                                   : Matroska
Format version                           : Version 4 / Version 2
File size                                : 4.49 GiB
Duration                                 : 1h 26mn
Overall bit rate                         : 7 443 Kbps
Movie name                               : -Talian-
Encoded date                             : UTC 2017-01-01 16:38:45
Writing application                      : mkvmerge v8.0.0 ('Til The Day That I Die') 64bit
Writing library                          : libebml v1.3.1 + libmatroska v1.4.2
DURATION                                 : 01:25:12.772000000
NUMBER_OF_FRAMES                         : 1149
NUMBER_OF_BYTES                          : 51701
_STATISTICS_WRITING_APP                  : mkvmerge v8.0.0 ('Til The Day That I Die') 64bit
_STATISTICS_WRITING_DATE_UTC             : 2017-01-01 16:38:45
_STATISTICS_TAGS                         : BPS DURATION NUMBER_OF_FRAMES NUMBER_OF_BYTES

Video
ID                                       : 1
Format                                   : AVC
Format/Info                              : Advanced Video Codec
Format profile                           : High@L4.1
Format settings, CABAC                   : Yes
Format settings, ReFrames                : 8 frames
Codec ID                                 : V_MPEG4/ISO/AVC
Duration                                 : 1h 26mn
Bit rate                                 : 5 740 Kbps
Width                                    : 1 280 pixels
Height                                   : 720 pixels
Display aspect ratio                     : 16:9
Frame rate mode                          : Constant
Frame rate                               : 23.976 fps
Color space                              : YUV
Chroma subsampling                       : 4:2:0
Bit depth                                : 8 bits
Scan type                                : Progressive
Bits/(Pixel*Frame)                       : 0.260
Stream size                              : 3.38 GiB (75%)
Title                                    : Hoodwinked.Too!.Hood.vs.Evil.2011.720p.BluRay.x264.DTS-WiKi
Writing library                          : x264 core 98 r1649 c54c47d
Encoding settings                        : cabac=1 / ref=8 / deblock=1:-1:-1 / analyse=0x3:0x113 / me=umh / subme=9 / psy=1 / psy_rd=1.00:0.10 / mixed_ref=1 / me_range=48 / chroma_me=1 / trellis=2 / 8x8dct=1 / cqm=0 / deadzone=21,11 / fast_pskip=0 / chroma_qp_offset=-5 / threads=6 / sliced_threads=0 / nr=0 / decimate=0 / interlaced=0 / constrained_intra=0 / bframes=6 / b_pyramid=2 / b_adapt=2 / b_bias=0 / direct=3 / weightb=1 / weightp=2 / keyint=250 / keyint_min=25 / scenecut=40 / intra_refresh=0 / rc_lookahead=48 / rc=2pass / mbtree=1 / bitrate=5740 / ratetol=1.0 / qcomp=0.60 / qpmin=10 / qpmax=51 / qpstep=4 / cplxblur=20.0 / qblur=0.5 / ip_ratio=1.40 / aq=1:0.90
Language                                 : English
Default                                  : Yes
Forced                                   : No
DURATION                                 : 01:26:22.769000000
NUMBER_OF_FRAMES                         : 124262
NUMBER_OF_BYTES                          : 3718376269
_STATISTICS_WRITING_APP                  : mkvmerge v8.0.0 ('Til The Day That I Die') 64bit
_STATISTICS_WRITING_DATE_UTC             : 2017-01-01 16:38:45
_STATISTICS_TAGS                         : BPS DURATION NUMBER_OF_FRAMES NUMBER_OF_BYTES

Audio #1
ID                                       : 2
Format                                   : AC-3
Format/Info                              : Audio Coding 3
Mode extension                           : CM (complete main)
Format settings, Endianness              : Big
Codec ID                                 : A_AC3
Duration                                 : 1h 26mn
Bit rate mode                            : Constant
Bit rate                                 : 192 Kbps
Channel(s)                               : 2 channels
Channel positions                        : Front: L R
Sampling rate                            : 48.0 KHz
Bit depth                                : 16 bits
Compression mode                         : Lossy
Delay relative to video                  : 24ms
Stream size                              : 119 MiB (3%)
Title                                    : CZ AC3 2.0 @ 192 Kbps
Language                                 : Czech
Default                                  : Yes
Forced                                   : No

Audio #2
ID                                       : 3
Format                                   : DTS
Format/Info                              : Digital Theater Systems
Mode                                     : 16
Format settings, Endianness              : Big
Codec ID                                 : A_DTS
Duration                                 : 1h 26mn
Bit rate mode                            : Constant
Bit rate                                 : 1 509 Kbps
Channel(s)                               : 6 channels
Channel positions                        : Front: L C R, Side: L R, LFE
Sampling rate                            : 48.0 KHz
Bit depth                                : 24 bits
Compression mode                         : Lossy
Stream size                              : 932 MiB (20%)
Title                                    : EN DTS 5.1 @ 1509 Kbps
Language                                 : English
Default                                  : No
Forced                                   : No

Text #1
ID                                       : 4
Format                                   : UTF-8
Codec ID                                 : S_TEXT/UTF8
Codec ID/Info                            : UTF-8 Plain Text
Title                                    : CZ
Language                                 : Czech
Default                                  : No
Forced                                   : No

Text #2
ID                                       : 5
Format                                   : UTF-8
Codec ID                                 : S_TEXT/UTF8
Codec ID/Info                            : UTF-8 Plain Text
Title                                    : EN
Language                                 : English
Default                                  : No
Forced                                   : No

Menu
00:00:00.000                             : en:00:00:00.000
00:09:32.528                             : en:00:09:32.528
00:16:46.629                             : en:00:16:46.629
00:20:27.351                             : en:00:20:27.351
00:28:45.390                             : en:00:28:45.390
00:37:40.047                             : en:00:37:40.047
00:42:04.063                             : en:00:42:04.063
00:48:22.815                             : en:00:48:22.815
00:53:40.382                             : en:00:53:40.382
01:00:00.179                             : en:01:00:00.179
01:04:41.126                             : en:01:04:41.126
01:15:35.654                             : en:01:15:35.654
01:26:22.760                             : en:01:26:22.760
Fastshare
Kód: [Vybrat]
http://fastshare.cz/6890552/karcoo21120.part1.rar
http://fastshare.cz/6890661/karcoo21120.part2.rar
http://fastshare.cz/6890692/karcoo21120.part3.rar
No Pass

=============================================

Hoodwinked.Too!.Hood.vs.Evil.2011.1080p.BluRay.x264.CZ.EN.MiKi
Jazyk : CZ 2.0 AC3 / EN 5.1 DTS
Titulky : CZ / EN

MediaInfo
Kód: [Vybrat]
Format                                   : Matroska
Format version                           : Version 4 / Version 2
File size                                : 15.4 GiB
Duration                                 : 1h 26mn
Overall bit rate mode                    : Variable
Overall bit rate                         : 25.5 Mbps
Movie name                               : -Talian-
Encoded date                             : UTC 2017-01-02 08:47:32
Writing application                      : mkvmerge v8.0.0 ('Til The Day That I Die') 64bit
Writing library                          : libebml v1.3.1 + libmatroska v1.4.2
DURATION                                 : 01:25:04.807000000
NUMBER_OF_FRAMES                         : 1372
NUMBER_OF_BYTES                          : 55270
_STATISTICS_WRITING_APP                  : mkvmerge v8.0.0 ('Til The Day That I Die') 64bit
_STATISTICS_WRITING_DATE_UTC             : 2017-01-02 08:47:32
_STATISTICS_TAGS                         : BPS DURATION NUMBER_OF_FRAMES NUMBER_OF_BYTES

Video
ID                                       : 1
Format                                   : AVC
Format/Info                              : Advanced Video Codec
Format profile                           : High@L4.1
Format settings, CABAC                   : Yes
Format settings, ReFrames                : 4 frames
Codec ID                                 : V_MPEG4/ISO/AVC
Duration                                 : 1h 26mn
Bit rate mode                            : Variable
Bit rate                                 : 23.3 Mbps
Maximum bit rate                         : 36.0 Mbps
Width                                    : 1 920 pixels
Height                                   : 1 080 pixels
Display aspect ratio                     : 16:9
Frame rate mode                          : Constant
Frame rate                               : 23.976 fps
Color space                              : YUV
Chroma subsampling                       : 4:2:0
Bit depth                                : 8 bits
Scan type                                : Progressive
Bits/(Pixel*Frame)                       : 0.469
Stream size                              : 14.1 GiB (91%)
Title                                    : Hoodwinked.Too!.Hood.vs.Evil.2011.1080p.BluRay.x264.CZ.EN.MiKi
Language                                 : English
Default                                  : Yes
Forced                                   : No

Audio #1
ID                                       : 2
Format                                   : AC-3
Format/Info                              : Audio Coding 3
Mode extension                           : CM (complete main)
Format settings, Endianness              : Big
Codec ID                                 : A_AC3
Duration                                 : 1h 26mn
Bit rate mode                            : Constant
Bit rate                                 : 192 Kbps
Channel(s)                               : 2 channels
Channel positions                        : Front: L R
Sampling rate                            : 48.0 KHz
Bit depth                                : 16 bits
Compression mode                         : Lossy
Delay relative to video                  : 24ms
Stream size                              : 119 MiB (1%)
Title                                    : CZ AC3 2.0 @ 192 Kbps
Language                                 : Czech
Default                                  : Yes
Forced                                   : No

Audio #2
ID                                       : 3
Format                                   : DTS
Format/Info                              : Digital Theater Systems
Mode                                     : 16
Format settings, Endianness              : Big
Codec ID                                 : A_DTS
Duration                                 : 1h 26mn
Bit rate mode                            : Constant
Bit rate                                 : 1 509 Kbps
Channel(s)                               : 6 channels
Channel positions                        : Front: L C R, Side: L R, LFE
Sampling rate                            : 48.0 KHz
Bit depth                                : 24 bits
Compression mode                         : Lossy
Stream size                              : 932 MiB (6%)
Title                                    : EN DTS 5.1 @ 1509 Kbps
Language                                 : English
Default                                  : No
Forced                                   : No

Text #1
ID                                       : 4
Format                                   : UTF-8
Codec ID                                 : S_TEXT/UTF8
Codec ID/Info                            : UTF-8 Plain Text
Title                                    : CZ
Language                                 : Czech
Default                                  : No
Forced                                   : No

Text #2
ID                                       : 5
Format                                   : UTF-8
Codec ID                                 : S_TEXT/UTF8
Codec ID/Info                            : UTF-8 Plain Text
Title                                    : EN
Language                                 : English
Default                                  : No
Forced                                   : No

Menu
00:00:00.000                             : en:00:00:00.000
00:09:32.528                             : en:00:09:32.528
00:16:46.629                             : en:00:16:46.629
00:20:27.351                             : en:00:20:27.351
00:28:45.390                             : en:00:28:45.390
00:37:40.047                             : en:00:37:40.047
00:42:04.063                             : en:00:42:04.063
00:48:22.815                             : en:00:48:22.815
00:53:40.382                             : en:00:53:40.382
01:00:00.179                             : en:01:00:00.179
01:04:41.126                             : en:01:04:41.126
01:15:35.654                             : en:01:15:35.654
01:26:22.760                             : en:01:26:22.760
Fastshare
No Pass

« Poslední změna: 16. Leden 2017, 14:25:27 od JakoTakiNaKaši »

 

Hosting poskytuje Station.cz