Vítejte na Native Warez Forum!

Jakožto host můžete prohlížet obsah fóra, ale teprve REGISTRACE Vám umožní:

- příspívat vlastními příspěvky a prohlížet četné odkazy ke stažení
- navštěvovat profily ostatních uživatelů
- používat tmavou verzi vzhledu
- vidět grafy funkčnosti odkazů
- sofistikovaně vyhledávat na fóru a využívat filtry
- používat moderní shout box pro psaní s ostatními
- využívat exkluzivní funkci Mé nefunkční linky, usnadňující práci uploaderům
- navštěvovat sekce NWF Exclusive, Uploader's Offerplace a sekce "Hledám ..."

Proto neváhejte a REGISTRUJTE se u nás, NWF tým se na Vás těší.

>> Téma: Vanilkové nebe / Vanilla Sky (2001)  (Přečteno 32 krát) Sdílet: Sdílet 'Vanilkové nebe / Vanilla Sky (2001)' na Delicious.com Sdílet 'Vanilkové nebe / Vanilla Sky (2001)' na Digg.com Sdílet 'Vanilkové nebe / Vanilla Sky (2001)' na Twitter.com Sdílet 'Vanilkové nebe / Vanilla Sky (2001)' na Facebook.com

0 uživatelů a 1 Host prohlíží toto téma.

Offline JakoTakiNaKaši
  • *
  • Počet příspěvků 5143
  • Počet poděkování 47

    • Zobrazit profil
Vanilkové nebe / Vanilla Sky (2001)
« kdy: 08. Leden 2017, 13:45:58 »
Vyhledat 'Vanilkové nebe  Sky' na Google.com (SSL) Vyhledat 'Vanilkové nebe  Sky' na YouTube
Vyhledat 'Vanilkové nebe  Sky' na ČSFD Vyhledat 'Vanilkové nebe  Sky' na IMDb Vyhledat 'Vanilkové nebe  Sky' na titulky.com
Vanilkové nebe / Vanilla Sky (2001)

Jazyk : CZ 5.1 AC3 / EN 5.1 DTS / EN 2.0 AC3 (Commentary by Cameron Crowe and Nancy Wilson)
Titulky : CZ / EN


Vanilla.Sky.2001.1080p.BluRay.x264.CZ.EN.MiKi


CSFD
Kód: [Vybrat]
http://www.csfd.cz/film/11711-vanilkove-nebe/prehled/MediaInfo
Kód: [Vybrat]
Format                                   : Matroska
Format version                           : Version 4 / Version 2
File size                                : 16.3 GiB
Duration                                 : 2h 16mn
Overall bit rate                         : 17.2 Mbps
Movie name                               : Released by shurikello
Encoded date                             : UTC 2017-01-04 08:42:55
Writing application                      : mkvmerge v8.0.0 ('Til The Day That I Die') 64bit
Writing library                          : libebml v1.3.1 + libmatroska v1.4.2
DURATION                                 : 02:08:27.261000000
NUMBER_OF_FRAMES                         : 1303
NUMBER_OF_BYTES                          : 49881
_STATISTICS_WRITING_APP                  : mkvmerge v8.0.0 ('Til The Day That I Die') 64bit
_STATISTICS_WRITING_DATE_UTC             : 2017-01-04 08:42:55
_STATISTICS_TAGS                         : BPS DURATION NUMBER_OF_FRAMES NUMBER_OF_BYTES

Video
ID                                       : 1
Format                                   : AVC
Format/Info                              : Advanced Video Codec
Format profile                           : High@L4.1
Format settings, CABAC                   : Yes
Format settings, ReFrames                : 4 frames
Codec ID                                 : V_MPEG4/ISO/AVC
Duration                                 : 2h 16mn
Bit rate                                 : 15.0 Mbps
Width                                    : 1 920 pixels
Height                                   : 1 080 pixels
Display aspect ratio                     : 16:9
Frame rate mode                          : Constant
Frame rate                               : 23.976 fps
Color space                              : YUV
Chroma subsampling                       : 4:2:0
Bit depth                                : 8 bits
Scan type                                : Progressive
Bits/(Pixel*Frame)                       : 0.302
Stream size                              : 13.9 GiB (85%)
Title                                    : Vanilla.Sky.2001.1080p.BluRay.x264.CZ.EN.MiKi
Writing library                          : x264 core 146 r2538 121396c
Encoding settings                        : cabac=1 / ref=4 / deblock=1:-3:-3 / analyse=0x3:0x133 / me=tesa / subme=11 / psy=1 / psy_rd=1.00:0.00 / mixed_ref=1 / me_range=48 / chroma_me=1 / trellis=2 / 8x8dct=1 / cqm=0 / deadzone=21,11 / fast_pskip=0 / chroma_qp_offset=-2 / threads=12 / lookahead_threads=2 / sliced_threads=0 / nr=0 / decimate=0 / interlaced=0 / bluray_compat=0 / constrained_intra=0 / bframes=8 / b_pyramid=2 / b_adapt=2 / b_bias=0 / direct=3 / weightb=1 / open_gop=0 / weightp=2 / keyint=240 / keyint_min=23 / scenecut=40 / intra_refresh=0 / rc_lookahead=60 / rc=2pass / mbtree=0 / bitrate=15000 / ratetol=1.0 / qcomp=0.70 / qpmin=0 / qpmax=69 / qpstep=4 / cplxblur=20.0 / qblur=0.5 / vbv_maxrate=50000 / vbv_bufsize=62500 / nal_hrd=none / filler=0 / ip_ratio=1.40 / pb_ratio=1.30 / aq=2:0.80
Language                                 : English
Default                                  : Yes
Forced                                   : No
DURATION                                 : 02:16:01.487000000
NUMBER_OF_FRAMES                         : 195680
NUMBER_OF_BYTES                          : 15302376330
_STATISTICS_WRITING_APP                  : mkvmerge v8.0.0 ('Til The Day That I Die') 64bit
_STATISTICS_WRITING_DATE_UTC             : 2017-01-04 08:42:55
_STATISTICS_TAGS                         : BPS DURATION NUMBER_OF_FRAMES NUMBER_OF_BYTES

Audio #1
ID                                       : 2
Format                                   : AC-3
Format/Info                              : Audio Coding 3
Mode extension                           : CM (complete main)
Format settings, Endianness              : Big
Codec ID                                 : A_AC3
Duration                                 : 2h 16mn
Bit rate mode                            : Constant
Bit rate                                 : 448 Kbps
Channel(s)                               : 6 channels
Channel positions                        : Front: L C R, Side: L R, LFE
Sampling rate                            : 48.0 KHz
Bit depth                                : 16 bits
Compression mode                         : Lossy
Delay relative to video                  : 1s 0ms
Stream size                              : 436 MiB (3%)
Title                                    : CZ AC3 5.1 @ 448 Kbps
Language                                 : Czech
Default                                  : Yes
Forced                                   : No

Audio #2
ID                                       : 3
Format                                   : DTS
Format/Info                              : Digital Theater Systems
Mode                                     : 16
Format settings, Endianness              : Big
Codec ID                                 : A_DTS
Duration                                 : 2h 16mn
Bit rate mode                            : Constant
Bit rate                                 : 1 509 Kbps
Channel(s)                               : 6 channels
Channel positions                        : Front: L C R, Side: L R, LFE
Sampling rate                            : 48.0 KHz
Bit depth                                : 24 bits
Compression mode                         : Lossy
Stream size                              : 1.43 GiB (9%)
Title                                    : EN DTS 5.1 @ 1509 Kbps
Language                                 : English
Default                                  : No
Forced                                   : No

Audio #3
ID                                       : 4
Format                                   : AC-3
Format/Info                              : Audio Coding 3
Format profile                           : Dolby Digital
Mode extension                           : CM (complete main)
Format settings, Endianness              : Big
Codec ID                                 : A_AC3
Duration                                 : 2h 16mn
Bit rate mode                            : Constant
Bit rate                                 : 224 Kbps
Channel(s)                               : 2 channels
Channel positions                        : Front: L R
Sampling rate                            : 48.0 KHz
Bit depth                                : 16 bits
Compression mode                         : Lossy
Stream size                              : 218 MiB (1%)
Title                                    : Commentary by Cameron Crowe and Nancy Wilson
Language                                 : English
Default                                  : No
Forced                                   : No

Text #1
ID                                       : 5
Format                                   : UTF-8
Codec ID                                 : S_TEXT/UTF8
Codec ID/Info                            : UTF-8 Plain Text
Title                                    : CZ
Language                                 : Czech
Default                                  : No
Forced                                   : No

Text #2
ID                                       : 6
Format                                   : UTF-8
Codec ID                                 : S_TEXT/UTF8
Codec ID/Info                            : UTF-8 Plain Text
Title                                    : EN
Language                                 : English
Default                                  : No
Forced                                   : No

Menu
00:00:00.000                             : en:Everything In Its Right Place
00:06:24.300                             : en:All The Right Friends
00:10:57.198                             : en:Defending The Kingdom
00:15:10.701                             : en:My Favorite Things
00:19:22.703                             : en:Keep On Pushin'
00:22:46.865                             : en:Directions
00:27:03.664                             : en:Her Apartment
00:30:29.953                             : en:Solsbury Hill
00:37:49.224                             : en:Last Goodbye
00:43:36.113                             : en:Lifestyle Mishap
00:51:42.766                             : en:Helpful Unit
00:54:52.456                             : en:This Is Me Smiling
00:59:03.331                             : en:Rez
01:06:41.246                             : en:Sweetness Follows
01:10:47.451                             : en:The Splice
01:13:08.091                             : en:Dig Deep David
01:20:13.350                             : en:Fourth Time Around
01:24:01.328                             : en:I Am Sofia
01:28:58.040                             : en:Revolution Of The Mind
01:33:06.663                             : en:Problems?
01:35:24.218                             : en:Can We Still Be Friends
01:42:40.361                             : en:Opening Act
01:45:59.686                             : en:The Healing Room
01:52:34.038                             : en:Good Vibrations
01:57:50.438                             : en:Ladies And Gentlemen We Are Floating In Space
02:01:42.002                             : en:Mortality As Home Entertainment
02:06:18.946                             : en:I'll Find You Again
02:09:20.460                             : en:Where Do I Begin
Fastshare
No Pass


 

Hosting poskytuje Station.cz