Vítejte na Native Warez Forum!

Jakožto host můžete prohlížet obsah fóra, ale teprve REGISTRACE Vám umožní:

- příspívat vlastními příspěvky a prohlížet četné odkazy ke stažení
- navštěvovat profily ostatních uživatelů
- používat tmavou verzi vzhledu
- vidět grafy funkčnosti odkazů
- sofistikovaně vyhledávat na fóru a využívat filtry
- používat moderní shout box pro psaní s ostatními
- využívat exkluzivní funkci Mé nefunkční linky, usnadňující práci uploaderům
- navštěvovat sekce NWF Exclusive, Uploader's Offerplace a sekce "Hledám ..."

Proto neváhejte a REGISTRUJTE se u nás, NWF tým se na Vás těší.

>> Téma: Magnolia (1999)  (Přečteno 52 krát) Sdílet: Sdílet 'Magnolia (1999)' na Delicious.com Sdílet 'Magnolia (1999)' na Digg.com Sdílet 'Magnolia (1999)' na Twitter.com Sdílet 'Magnolia (1999)' na Facebook.com

0 uživatelů a 1 Host prohlíží toto téma.

Offline JakoTakiNaKaši
  • *
  • Počet příspěvků 5249
  • Počet poděkování 48

    • Zobrazit profil
Magnolia (1999)
« kdy: 08. Leden 2017, 14:04:13 »
Vyhledat 'Magnolia' na Google.com (SSL) Vyhledat 'Magnolia' na YouTube
Vyhledat 'Magnolia' na ČSFD Vyhledat 'Magnolia' na IMDb Vyhledat 'Magnolia' na titulky.com
Magnolia (1999)

Jazyk : CZ 2.0 AC3 / EN 5.1 AC3
Titulky : CZ / EN


Magnolia.1999.1080p.BluRay.x264.CZ.EN.MiKi


CSFD
Kód: [Vybrat]
http://www.csfd.cz/film/159-magnolia/prehled/MediaInfo
Kód: [Vybrat]
Format                                   : Matroska
Format version                           : Version 4 / Version 2
File size                                : 14.0 GiB
Duration                                 : 3h 8mn
Overall bit rate                         : 10.6 Mbps
Encoded date                             : UTC 2017-01-04 11:33:18
Writing application                      : mkvmerge v8.0.0 ('Til The Day That I Die') 64bit
Writing library                          : libebml v1.3.1 + libmatroska v1.4.2
DURATION                                 : 03:00:45.600000000
NUMBER_OF_FRAMES                         : 2113
NUMBER_OF_BYTES                          : 74435
_STATISTICS_WRITING_APP                  : mkvmerge v8.0.0 ('Til The Day That I Die') 64bit
_STATISTICS_WRITING_DATE_UTC             : 2017-01-04 11:33:18
_STATISTICS_TAGS                         : BPS DURATION NUMBER_OF_FRAMES NUMBER_OF_BYTES
Attachment                               : Yes

Video
ID                                       : 1
Format                                   : AVC
Format/Info                              : Advanced Video Codec
Format profile                           : High@L4.1
Format settings, CABAC                   : Yes
Format settings, ReFrames                : 4 frames
Codec ID                                 : V_MPEG4/ISO/AVC
Duration                                 : 3h 8mn
Bit rate                                 : 9 493 Kbps
Width                                    : 1 920 pixels
Height                                   : 800 pixels
Display aspect ratio                     : 2.40:1
Frame rate mode                          : Constant
Frame rate                               : 23.976 fps
Color space                              : YUV
Chroma subsampling                       : 4:2:0
Bit depth                                : 8 bits
Scan type                                : Progressive
Bits/(Pixel*Frame)                       : 0.258
Stream size                              : 12.5 GiB (90%)
Title                                    : Magnolia.1999.1080p.BluRay.x264.CZ.EN.MiKi
Language                                 : English
Default                                  : Yes
Forced                                   : No
Matrix coefficients                      : BT.709
DURATION                                 : 03:08:39.660000000
NUMBER_OF_FRAMES                         : 271400
NUMBER_OF_BYTES                          : 13726224847
_STATISTICS_WRITING_APP                  : mkvmerge v8.0.0 ('Til The Day That I Die') 64bit
_STATISTICS_WRITING_DATE_UTC             : 2017-01-04 11:33:18
_STATISTICS_TAGS                         : BPS DURATION NUMBER_OF_FRAMES NUMBER_OF_BYTES

Audio #1
ID                                       : 2
Format                                   : AC-3
Format/Info                              : Audio Coding 3
Mode extension                           : CM (complete main)
Format settings, Endianness              : Big
Codec ID                                 : A_AC3
Duration                                 : 3h 8mn
Bit rate mode                            : Constant
Bit rate                                 : 256 Kbps
Channel(s)                               : 2 channels
Channel positions                        : Front: L R
Sampling rate                            : 48.0 KHz
Bit depth                                : 16 bits
Compression mode                         : Lossy
Stream size                              : 345 MiB (2%)
Title                                    : CZ AC3 2.0 @ 256 Kbps
Language                                 : Czech
Default                                  : Yes
Forced                                   : No

Audio #2
ID                                       : 3
Format                                   : AC-3
Format/Info                              : Audio Coding 3
Mode extension                           : CM (complete main)
Format settings, Endianness              : Big
Codec ID                                 : A_AC3
Duration                                 : 3h 8mn
Bit rate mode                            : Constant
Bit rate                                 : 640 Kbps
Channel(s)                               : 6 channels
Channel positions                        : Front: L C R, Side: L R, LFE
Sampling rate                            : 48.0 KHz
Bit depth                                : 16 bits
Compression mode                         : Lossy
Stream size                              : 864 MiB (6%)
Title                                    : EN AC3 5.1 @ 640 Kbps
Language                                 : English
Default                                  : No
Forced                                   : No

Text #1
ID                                       : 4
Format                                   : UTF-8
Codec ID                                 : S_TEXT/UTF8
Codec ID/Info                            : UTF-8 Plain Text
Title                                    : CZ
Language                                 : Czech
Default                                  : No
Forced                                   : No

Text #2
ID                                       : 5
Format                                   : UTF-8
Codec ID                                 : S_TEXT/UTF8
Codec ID/Info                            : UTF-8 Plain Text
Title                                    : EN
Language                                 : English
Default                                  : No
Forced                                   : No

Menu
00:00:00.000                             : en:Prologue
00:06:12.703                             : en:One
00:13:00.815                             : en:82% chance of rain
00:43:22.371                             : en:Light showers
00:56:30.276                             : en:Momentum
01:17:18.222                             : en:Carmen
01:28:16.165                             : en:Family picnic
01:41:53.016                             : en:Meltdown
02:02:59.647                             : en:Wise up
02:36:52.161                             : en:The kiss
02:45:23.501                             : en:Rain
02:52:22.416                             : en:So now then
Fastshare
No Pass


 

Hosting poskytuje Station.cz