Vítejte na Native Warez Forum!

Jakožto host můžete prohlížet obsah fóra, ale teprve REGISTRACE Vám umožní:

- příspívat vlastními příspěvky a prohlížet četné odkazy ke stažení
- navštěvovat profily ostatních uživatelů
- používat tmavou verzi vzhledu
- vidět grafy funkčnosti odkazů
- sofistikovaně vyhledávat na fóru a využívat filtry
- používat moderní shout box pro psaní s ostatními
- využívat exkluzivní funkci Mé nefunkční linky, usnadňující práci uploaderům
- navštěvovat sekce NWF Exclusive, Uploader's Offerplace a sekce "Hledám ..."

Proto neváhejte a REGISTRUJTE se u nás, NWF tým se na Vás těší.

>> Téma: Šprti na tahu / Good Kids (2016)  (Přečteno 130 krát) Sdílet: Sdílet 'Šprti na tahu / Good Kids (2016)' na Delicious.com Sdílet 'Šprti na tahu / Good Kids (2016)' na Digg.com Sdílet 'Šprti na tahu / Good Kids (2016)' na Twitter.com Sdílet 'Šprti na tahu / Good Kids (2016)' na Facebook.com

0 uživatelů a 1 Host prohlíží toto téma.

Offline JakoTakiNaKaši
  • *
  • Počet příspěvků 5292
  • Počet poděkování 48

    • Zobrazit profil
Šprti na tahu / Good Kids (2016)
« kdy: 10. Leden 2017, 13:02:52 »
Vyhledat 'Šprti na tahu  Kids' na Google.com (SSL) Vyhledat 'Šprti na tahu  Kids' na YouTube
Vyhledat 'Šprti na tahu  Kids' na ČSFD Vyhledat 'Šprti na tahu  Kids' na IMDb Vyhledat 'Šprti na tahu  Kids' na titulky.com
Šprti na tahu / Good Kids (2016)

Good.Kids.2016.720p.BluRay.X264-iNVANDRAREN[PRiME]
Good.Kids.2016.1080p.BluRay.X264-iNVANDRAREN[PRiME]


CSFD
Kód: [Vybrat]
http://www.csfd.cz/film/397870-sprti-na-tahu/prehled/
Good.Kids.2016.720p.BluRay.X264-iNVANDRAREN[PRiME]
Jazyk : CZ 5.1 AC3 / EN 5.1 DTS
Titulky : ne

MediaInfo
Kód: [Vybrat]
Format                                   : Matroska
Format version                           : Version 4 / Version 2
File size                                : 4.65 GiB
Duration                                 : 1h 29mn
Overall bit rate                         : 7 440 Kbps
Encoded date                             : UTC 2017-01-09 21:09:59
Writing application                      : mkvmerge v8.0.0 ('Til The Day That I Die') 64bit
Writing library                          : libebml v1.3.1 + libmatroska v1.4.2
DURATION                                 : 01:29:29.120000000
NUMBER_OF_FRAMES                         : 167785
NUMBER_OF_BYTES                          : 300670720
_STATISTICS_WRITING_APP                  : mkvmerge v8.0.0 ('Til The Day That I Die') 64bit
_STATISTICS_WRITING_DATE_UTC             : 2017-01-09 21:09:59
_STATISTICS_TAGS                         : BPS DURATION NUMBER_OF_FRAMES NUMBER_OF_BYTES

Video
ID                                       : 1
Format                                   : AVC
Format/Info                              : Advanced Video Codec
Format profile                           : High@L4.1
Format settings, CABAC                   : Yes
Format settings, ReFrames                : 5 frames
Codec ID                                 : V_MPEG4/ISO/AVC
Duration                                 : 1h 29mn
Bit rate                                 : 5 484 Kbps
Width                                    : 1 280 pixels
Height                                   : 536 pixels
Display aspect ratio                     : 2.40:1
Frame rate mode                          : Constant
Frame rate                               : 23.976 fps
Color space                              : YUV
Chroma subsampling                       : 4:2:0
Bit depth                                : 8 bits
Scan type                                : Progressive
Bits/(Pixel*Frame)                       : 0.333
Stream size                              : 3.33 GiB (72%)
Title                                    : Good.Kids.2016.720p.BluRay.X264-iNVANDRAREN[PRiME]
Writing library                          : x264 core 148 r2744kMod b97ae06
Encoding settings                        : cabac=1 / ref=5 / deblock=1:0:0 / analyse=0x3:0x133 / me=umh / subme=7 / psy=1 / fade_compensate=0.00 / psy_rd=1.00:0.00 / mixed_ref=1 / me_range=16 / chroma_me=1 / trellis=2 / 8x8dct=1 / cqm=0 / deadzone=21,11 / fast_pskip=0 / chroma_qp_offset=-2 / threads=12 / lookahead_threads=2 / sliced_threads=0 / nr=0 / decimate=1 / interlaced=0 / bluray_compat=0 / constrained_intra=0 / bframes=3 / b_pyramid=2 / b_adapt=1 / b_bias=0 / direct=3 / weightb=1 / open_gop=0 / weightp=2 / keyint=250 / keyint_min=23 / scenecut=40 / intra_refresh=0 / rc_lookahead=50 / rc=2pass / mbtree=1 / bitrate=5484 / ratetol=1.0 / qcomp=0.60 / qpmin=0 / qpmax=69 / qpstep=4 / cplxblur=20.0 / qblur=0.5 / ip_ratio=1.40 / aq=1:1.00
Language                                 : English
Default                                  : Yes
Forced                                   : No
DURATION                                 : 01:29:27.446000000
NUMBER_OF_FRAMES                         : 128690
NUMBER_OF_BYTES                          : 3678481116
_STATISTICS_WRITING_APP                  : mkvmerge v8.0.0 ('Til The Day That I Die') 64bit
_STATISTICS_WRITING_DATE_UTC             : 2017-01-09 21:09:59
_STATISTICS_TAGS                         : BPS DURATION NUMBER_OF_FRAMES NUMBER_OF_BYTES

Audio #1
ID                                       : 2
Format                                   : AC-3
Format/Info                              : Audio Coding 3
Mode extension                           : CM (complete main)
Format settings, Endianness              : Big
Codec ID                                 : A_AC3
Duration                                 : 1h 29mn
Bit rate mode                            : Constant
Bit rate                                 : 448 Kbps
Channel(s)                               : 6 channels
Channel positions                        : Front: L C R, Side: L R, LFE
Sampling rate                            : 48.0 KHz
Bit depth                                : 16 bits
Compression mode                         : Lossy
Stream size                              : 287 MiB (6%)
Title                                    : CZ AC3 5.1 @ 448 Kbps
Language                                 : Czech
Default                                  : Yes
Forced                                   : No

Audio #2
ID                                       : 3
Format                                   : DTS
Format/Info                              : Digital Theater Systems
Mode                                     : 16
Format settings, Endianness              : Big
Codec ID                                 : A_DTS
Duration                                 : 1h 29mn
Bit rate mode                            : Constant
Bit rate                                 : 1 509 Kbps
Channel(s)                               : 6 channels
Channel positions                        : Front: L C R, Side: L R, LFE
Sampling rate                            : 48.0 KHz
Bit depth                                : 24 bits
Compression mode                         : Lossy
Stream size                              : 966 MiB (20%)
Title                                    : EN DTS 5.1 @ 1509 Kbps
Language                                 : English
Default                                  : No
Forced                                   : No
Fastshare
Kód: [Vybrat]
http://fastshare.cz/6928512/spanata1620.part1.rar
http://fastshare.cz/6928601/spanata1620.part2.rar
http://fastshare.cz/6928633/spanata1620.part3.rar
No Pass

=============================================

Good.Kids.2016.1080p.BluRay.X264-iNVANDRAREN[PRiME]
Jazyk : CZ 5.1 AC3 / EN 5.1 DTS
Titulky : ne

MediaInfo
Kód: [Vybrat]
Format                                   : Matroska
Format version                           : Version 4 / Version 2
File size                                : 6.84 GiB
Duration                                 : 1h 29mn
Overall bit rate                         : 10.9 Mbps
Encoded date                             : UTC 2017-01-09 21:17:07
Writing application                      : mkvmerge v8.0.0 ('Til The Day That I Die') 64bit
Writing library                          : libebml v1.3.1 + libmatroska v1.4.2
DURATION                                 : 01:29:29.120000000
NUMBER_OF_FRAMES                         : 167785
NUMBER_OF_BYTES                          : 300670720
_STATISTICS_WRITING_APP                  : mkvmerge v8.0.0 ('Til The Day That I Die') 64bit
_STATISTICS_WRITING_DATE_UTC             : 2017-01-09 21:17:07
_STATISTICS_TAGS                         : BPS DURATION NUMBER_OF_FRAMES NUMBER_OF_BYTES

Video
ID                                       : 1
Format                                   : AVC
Format/Info                              : Advanced Video Codec
Format profile                           : High@L4.1
Format settings, CABAC                   : Yes
Format settings, ReFrames                : 5 frames
Codec ID                                 : V_MPEG4/ISO/AVC
Duration                                 : 1h 29mn
Bit rate                                 : 8 985 Kbps
Width                                    : 1 920 pixels
Height                                   : 808 pixels
Display aspect ratio                     : 2.40:1
Frame rate mode                          : Constant
Frame rate                               : 23.976 fps
Color space                              : YUV
Chroma subsampling                       : 4:2:0
Bit depth                                : 8 bits
Scan type                                : Progressive
Bits/(Pixel*Frame)                       : 0.242
Stream size                              : 5.48 GiB (80%)
Title                                    : Good.Kids.2016.1080p.BluRay.X264-iNVANDRAREN[PRiME]
Writing library                          : x264 core 148 r2744kMod b97ae06
Encoding settings                        : cabac=1 / ref=5 / deblock=1:0:0 / analyse=0x3:0x133 / me=umh / subme=7 / psy=1 / fade_compensate=0.00 / psy_rd=1.00:0.00 / mixed_ref=1 / me_range=16 / chroma_me=1 / trellis=2 / 8x8dct=1 / cqm=0 / deadzone=21,11 / fast_pskip=0 / chroma_qp_offset=-2 / threads=12 / lookahead_threads=2 / sliced_threads=0 / nr=0 / decimate=1 / interlaced=0 / bluray_compat=0 / constrained_intra=0 / bframes=3 / b_pyramid=2 / b_adapt=1 / b_bias=0 / direct=3 / weightb=1 / open_gop=0 / weightp=2 / keyint=250 / keyint_min=23 / scenecut=40 / intra_refresh=0 / rc_lookahead=50 / rc=2pass / mbtree=1 / bitrate=8985 / ratetol=1.0 / qcomp=0.60 / qpmin=0 / qpmax=69 / qpstep=4 / cplxblur=20.0 / qblur=0.5 / ip_ratio=1.40 / aq=1:1.00
Language                                 : English
Default                                  : Yes
Forced                                   : No
DURATION                                 : 01:29:27.446000000
NUMBER_OF_FRAMES                         : 128690
NUMBER_OF_BYTES                          : 6026117582
_STATISTICS_WRITING_APP                  : mkvmerge v8.0.0 ('Til The Day That I Die') 64bit
_STATISTICS_WRITING_DATE_UTC             : 2017-01-09 21:17:07
_STATISTICS_TAGS                         : BPS DURATION NUMBER_OF_FRAMES NUMBER_OF_BYTES

Audio #1
ID                                       : 2
Format                                   : AC-3
Format/Info                              : Audio Coding 3
Mode extension                           : CM (complete main)
Format settings, Endianness              : Big
Codec ID                                 : A_AC3
Duration                                 : 1h 29mn
Bit rate mode                            : Constant
Bit rate                                 : 448 Kbps
Channel(s)                               : 6 channels
Channel positions                        : Front: L C R, Side: L R, LFE
Sampling rate                            : 48.0 KHz
Bit depth                                : 16 bits
Compression mode                         : Lossy
Stream size                              : 287 MiB (4%)
Title                                    : CZ AC3 5.1 @ 448 Kbps
Language                                 : Czech
Default                                  : Yes
Forced                                   : No

Audio #2
ID                                       : 3
Format                                   : DTS
Format/Info                              : Digital Theater Systems
Mode                                     : 16
Format settings, Endianness              : Big
Codec ID                                 : A_DTS
Duration                                 : 1h 29mn
Bit rate mode                            : Constant
Bit rate                                 : 1 509 Kbps
Channel(s)                               : 6 channels
Channel positions                        : Front: L C R, Side: L R, LFE
Sampling rate                            : 48.0 KHz
Bit depth                                : 24 bits
Compression mode                         : Lossy
Stream size                              : 966 MiB (14%)
Title                                    : EN DTS 5.1 @ 1509 Kbps
Language                                 : English
Default                                  : No
Forced                                   : No
Fastshare
No Pass


 

Hosting poskytuje Station.cz