Vítejte na Native Warez Forum!

Jakožto host můžete prohlížet obsah fóra, ale teprve REGISTRACE Vám umožní:

- příspívat vlastními příspěvky a prohlížet četné odkazy ke stažení
- navštěvovat profily ostatních uživatelů
- používat tmavou verzi vzhledu
- vidět grafy funkčnosti odkazů
- sofistikovaně vyhledávat na fóru a využívat filtry
- používat moderní shout box pro psaní s ostatními
- využívat exkluzivní funkci Mé nefunkční linky, usnadňující práci uploaderům
- navštěvovat sekce NWF Exclusive, Uploader's Offerplace a sekce "Hledám ..."

Proto neváhejte a REGISTRUJTE se u nás, NWF tým se na Vás těší.

>> Téma: Povstání mrtvých: Strážní věž / Dead Rising (2015)  (Přečteno 122 krát) Sdílet: Sdílet 'Povstání mrtvých: Strážní věž / Dead Rising (2015)' na Delicious.com Sdílet 'Povstání mrtvých: Strážní věž / Dead Rising (2015)' na Digg.com Sdílet 'Povstání mrtvých: Strážní věž / Dead Rising (2015)' na Twitter.com Sdílet 'Povstání mrtvých: Strážní věž / Dead Rising (2015)' na Facebook.com

0 uživatelů a 1 Host prohlíží toto téma.

Offline JakoTakiNaKaši
  • *
  • Počet příspěvků 5143
  • Počet poděkování 47

    • Zobrazit profil
Povstání mrtvých: Strážní věž / Dead Rising (2015)

Jazyk : CZ 2.0 AC3 / EN 5.1 DTS
Titulky : CZ


Dead.Rising.Watchtower.2015.1080p.BluRay.x264.CZ.EN.MiKi


CSFD
Kód: [Vybrat]
http://www.csfd.cz/film/392539-povstani-mrtvych-strazni-vez/prehled/MediaInfo
Kód: [Vybrat]
Format                                   : Matroska
Format version                           : Version 4 / Version 2
File size                                : 9.70 GiB
Duration                                 : 1h 58mn
Overall bit rate                         : 11.8 Mbps
Encoded date                             : UTC 2017-01-10 10:48:00
Writing application                      : mkvmerge v8.0.0 ('Til The Day That I Die') 64bit
Writing library                          : libebml v1.3.1 + libmatroska v1.4.2
DURATION                                 : 01:54:45.356000000
NUMBER_OF_FRAMES                         : 1100
NUMBER_OF_BYTES                          : 33562
_STATISTICS_WRITING_APP                  : mkvmerge v8.0.0 ('Til The Day That I Die') 64bit
_STATISTICS_WRITING_DATE_UTC             : 2017-01-10 10:48:00
_STATISTICS_TAGS                         : BPS DURATION NUMBER_OF_FRAMES NUMBER_OF_BYTES

Video
ID                                       : 1
Format                                   : AVC
Format/Info                              : Advanced Video Codec
Format profile                           : High@L4.1
Format settings, CABAC                   : Yes
Format settings, ReFrames                : 5 frames
Codec ID                                 : V_MPEG4/ISO/AVC
Duration                                 : 1h 58mn
Bit rate                                 : 10 000 Kbps
Width                                    : 1 920 pixels
Height                                   : 800 pixels
Display aspect ratio                     : 2.40:1
Frame rate mode                          : Constant
Frame rate                               : 23.976 fps
Color space                              : YUV
Chroma subsampling                       : 4:2:0
Bit depth                                : 8 bits
Scan type                                : Progressive
Bits/(Pixel*Frame)                       : 0.272
Stream size                              : 8.05 GiB (83%)
Title                                    : Dead.Rising.Watchtower.2015.1080p.BluRay.x264.CZ.EN.MiKi
Writing library                          : x264 core 146 r2538 121396c
Encoding settings                        : cabac=1 / ref=5 / deblock=1:-3:-3 / analyse=0x3:0x133 / me=umh / subme=11 / psy=1 / psy_rd=1.00:0.10 / mixed_ref=1 / me_range=64 / chroma_me=1 / trellis=2 / 8x8dct=1 / cqm=0 / deadzone=21,11 / fast_pskip=0 / chroma_qp_offset=-3 / threads=12 / lookahead_threads=2 / sliced_threads=0 / nr=0 / decimate=1 / interlaced=0 / bluray_compat=0 / constrained_intra=0 / bframes=8 / b_pyramid=2 / b_adapt=2 / b_bias=0 / direct=3 / weightb=1 / open_gop=0 / weightp=2 / keyint=250 / keyint_min=23 / scenecut=40 / intra_refresh=0 / rc_lookahead=40 / rc=2pass / mbtree=0 / bitrate=10000 / ratetol=1.0 / qcomp=0.60 / qpmin=0 / qpmax=69 / qpstep=4 / cplxblur=20.0 / qblur=0.5 / vbv_maxrate=50000 / vbv_bufsize=62500 / nal_hrd=none / filler=0 / ip_ratio=1.40 / pb_ratio=1.30 / aq=1:1.00
Language                                 : English
Default                                  : Yes
Forced                                   : No
DURATION                                 : 01:58:07.331000000
NUMBER_OF_FRAMES                         : 169926
NUMBER_OF_BYTES                          : 8847971493
_STATISTICS_WRITING_APP                  : mkvmerge v8.0.0 ('Til The Day That I Die') 64bit
_STATISTICS_WRITING_DATE_UTC             : 2017-01-10 10:48:00
_STATISTICS_TAGS                         : BPS DURATION NUMBER_OF_FRAMES NUMBER_OF_BYTES

Audio #1
ID                                       : 2
Format                                   : AC-3
Format/Info                              : Audio Coding 3
Mode extension                           : CM (complete main)
Format settings, Endianness              : Big
Codec ID                                 : A_AC3
Duration                                 : 1h 58mn
Bit rate mode                            : Constant
Bit rate                                 : 256 Kbps
Channel(s)                               : 2 channels
Channel positions                        : Front: L R
Sampling rate                            : 48.0 KHz
Bit depth                                : 16 bits
Compression mode                         : Lossy
Stream size                              : 216 MiB (2%)
Title                                    : CZ AC3 2.0 @ 256 Kbps
Language                                 : Czech
Default                                  : Yes
Forced                                   : No

Audio #2
ID                                       : 3
Format                                   : DTS
Format/Info                              : Digital Theater Systems
Mode                                     : 16
Format settings, Endianness              : Big
Codec ID                                 : A_DTS
Duration                                 : 1h 58mn
Bit rate mode                            : Constant
Bit rate                                 : 1 509 Kbps
Channel(s)                               : 6 channels
Channel positions                        : Front: L C R, Side: L R, LFE
Sampling rate                            : 48.0 KHz
Bit depth                                : 24 bits
Compression mode                         : Lossy
Stream size                              : 1.25 GiB (13%)
Title                                    : EN DTS 5.1 @ 1509 Kbps
Language                                 : English
Default                                  : No
Forced                                   : No

Text
ID                                       : 4
Format                                   : UTF-8
Codec ID                                 : S_TEXT/UTF8
Codec ID/Info                            : UTF-8 Plain Text
Title                                    : CZ
Language                                 : Czech
Default                                  : No
Forced                                   : No
Fastshare
No Pass


 

Hosting poskytuje Station.cz